Tags
Language
Tags

Marcus Miller - Free (2007) {3 Deuces}

Posted By: tiburon
Marcus Miller - Free (2007) {3 Deuces}

Marcus Miller - Free (2007) {3 Deuces}
EAC 1.0b3 | FLAC tracks level 8 | Cue+Log+M3U | Full Scans 300dpi | 393MB + 5% Recovery
MP3 CBR 320 Kbps | 133MB + 5% Recovery
Genre: Jazz-Funk, Fusion, R&B
Marcus Miller - Free (2007) {3 Deuces}

2007 release by the critically lauded jazz bassist who has played with many of the legendary greats in his storied career like Miles Davis and David Sanborn. The first cut will appeal to all of the Super Funksters out there with a middle east twang. A hard hitter. The tittle track features Corine Bailey-Rae doing a cover from the 70's. All tracks show Marcus's ability to produce hard pounding thumping music that pleases the soul.
Track List
01. Blast 5:43
02. Funk Joint 5:42
03. Free 5:39
04. Strum 5:40
05. Milky Way 5:38
06. Pluck (Interlude) 3:55
07. When I Fall In Love 5:24
08. Jean Pierre 7:26
09. Higher Ground 6:30
10. What Is Hip? 5:58

musicians
Marcus Miller - bass, guitar, keyboards, organ, sitar, bass clarinet, percussion, beat programming
Poogie Bell - drums
Julian Miller - percussion programming
Andrea Braido - guitar
David Sanborn - alto saxophone
Bernard Wright - synthesizers, organ
Paul Jackson, Jr. - acoustic guitar
Tom Scott - tenor sax
Lalah Hathaway - vocals
Bobby Sparks - synths, bass synths, Moog synths, clavinet, organ
Gregoire Maret - harmonica
Michael "Patches" Stewart - trumpet, flugelhorn
Keith Anderson - tenor saxophone
Chester Thompson - organ
Jason Thomas - drums
Keb' Mo' - lead and background vocals, guitar
Teddy Campbell - drums
Corinne Bailey Rae - lead and background vocals
Tavia Ivey - background vocals
Kenya Ivey - background vocals
Ulisa Ivey - background vocals
Gussie Miller - background vocals

Produced by Marcus Miller


Exact Audio Copy V1.0 beta 3 from 29. August 2011

EAC extraction logfile from 19. May 2012, 11:15

Marcus Miller / Free

Used drive : HL-DT-STDVDRAM GH20NS10 Adapter: 2 ID: 1

Read mode : Secure
Utilize accurate stream : Yes
Defeat audio cache : Yes
Make use of C2 pointers : No

Read offset correction : 667
Overread into Lead-In and Lead-Out : No
Fill up missing offset samples with silence : Yes
Delete leading and trailing silent blocks : No
Null samples used in CRC calculations : Yes
Used interface : Native Win32 interface for Win NT & 2000
Gap handling : Appended to previous track

Used output format : User Defined Encoder
Selected bitrate : 1024 kBit/s
Quality : High
Add ID3 tag : No
Command line compressor : C:\Program Files\Exact Audio Copy\Flac\flac.exe
Additional command line options : -8 -V -T "ARTIST=%artist%" -T "TITLE=%title%" -T "ALBUM=%albumtitle%" -T "DATE=%year%" -T "TRACKNUMBER=%tracknr%" -T "TOTALTRACKS=%numtracks%" -T "GENRE=%genre%" -T "ALBUMARTIST=%albumartist%" -T "ALBUM ARTIST=%albumartist%" -T "COMMENT=EAC Secure Mode, Test & Copy, AccurateRip, FLAC -8" %source%


TOC of the extracted CD

Track | Start | Length | Start sector | End sector
––––––––––––––––––––––––––––-
1 | 0:00.00 | 5:43.25 | 0 | 25749
2 | 5:43.25 | 5:44.36 | 25750 | 51585
3 | 11:27.61 | 5:38.51 | 51586 | 76986
4 | 17:06.37 | 5:41.34 | 76987 | 102595
5 | 22:47.71 | 5:37.72 | 102596 | 127942
6 | 28:25.68 | 3:55.01 | 127943 | 145568
7 | 32:20.69 | 5:23.38 | 145569 | 169831
8 | 37:44.32 | 7:25.51 | 169832 | 203257
9 | 45:10.08 | 6:30.05 | 203258 | 232512
10 | 51:40.13 | 6:00.07 | 232513 | 259519


Track 1

Filename D:\Marcus Miller - Free (2007) [FLAC]\01 - Blast.wav

Pre-gap length 0:00:02.00

Peak level 99.7 %
Extraction speed 4.9 X
Track quality 100.0 %
Test CRC C8298372
Copy CRC C8298372
Accurately ripped (confidence 4) [5F66470D] (AR v2)
Copy OK

Track 2

Filename D:\Marcus Miller - Free (2007) [FLAC]\02 - Funk Joint.wav

Peak level 100.0 %
Extraction speed 5.6 X
Track quality 100.0 %
Test CRC 46EF9176
Copy CRC 46EF9176
Accurately ripped (confidence 4) [48BF8459] (AR v2)
Copy OK

Track 3

Filename D:\Marcus Miller - Free (2007) [FLAC]\03 - Free.wav

Pre-gap length 0:00:02.13

Peak level 100.0 %
Extraction speed 6.1 X
Track quality 100.0 %
Test CRC A047413E
Copy CRC A047413E
Accurately ripped (confidence 4) [71EAE56B] (AR v2)
Copy OK

Track 4

Filename D:\Marcus Miller - Free (2007) [FLAC]\04 - Strum.wav

Peak level 99.8 %
Extraction speed 6.7 X
Track quality 100.0 %
Test CRC 48B6B0FC
Copy CRC 48B6B0FC
Accurately ripped (confidence 4) [4A5776FE] (AR v2)
Copy OK

Track 5

Filename D:\Marcus Miller - Free (2007) [FLAC]\05 - Milky Way.wav

Pre-gap length 0:00:01.37

Peak level 100.0 %
Extraction speed 6.2 X
Track quality 99.9 %
Test CRC 37F58F44
Copy CRC 37F58F44
Accurately ripped (confidence 3) [B0EB8F13] (AR v2)
Copy OK

Track 6

Filename D:\Marcus Miller - Free (2007) [FLAC]\06 - Pluck (Interlude).wav

Peak level 100.0 %
Extraction speed 5.6 X
Track quality 99.9 %
Test CRC 950E39CC
Copy CRC 950E39CC
Accurately ripped (confidence 4) [6FAEB9A8] (AR v2)
Copy OK

Track 7

Filename D:\Marcus Miller - Free (2007) [FLAC]\07 - When I Fall In Love.wav

Peak level 91.1 %
Extraction speed 7.6 X
Track quality 100.0 %
Test CRC 4269D9DB
Copy CRC 4269D9DB
Accurately ripped (confidence 4) [2AAA4CFA] (AR v2)
Copy OK

Track 8

Filename D:\Marcus Miller - Free (2007) [FLAC]\08 - Jean Pierre.wav

Peak level 100.0 %
Extraction speed 7.9 X
Track quality 100.0 %
Test CRC 1C9103E3
Copy CRC 1C9103E3
Accurately ripped (confidence 4) [7A26AB2A] (AR v2)
Copy OK

Track 9

Filename D:\Marcus Miller - Free (2007) [FLAC]\09 - Higher Ground.wav

Peak level 100.0 %
Extraction speed 5.3 X
Track quality 99.9 %
Test CRC 032B5DF5
Copy CRC 032B5DF5
Accurately ripped (confidence 4) [5A345697] (AR v2)
Copy OK

Track 10

Filename D:\Marcus Miller - Free (2007) [FLAC]\10 - What Is Hip.wav

Pre-gap length 0:00:00.11

Peak level 100.0 %
Extraction speed 5.8 X
Track quality 100.0 %
Test CRC AE4D9722
Copy CRC AE4D9722
Accurately ripped (confidence 4) [D47F4784] (AR v2)
Copy OK


All tracks accurately ripped

No errors occurred

End of status report

==== Log checksum 5B3EB397C07F3A77B19B5D7274C5C0DC9F93B51372CEE53419E5599E54D4CDE7 ====


––––––––––––––––––––––––––––––––––––––––
Analyzed: Marcus Miller / Free
––––––––––––––––––––––––––––––––––––––––

DR Peak RMS Duration Track
––––––––––––––––––––––––––––––––––––––––
DR8 -0.02 dB -9.42 dB 5:43 01-Blast
DR7 0.00 dB -9.13 dB 5:44 02-Funk Joint
DR8 0.00 dB -9.97 dB 5:39 03-Free
DR7 -0.02 dB -8.67 dB 5:41 04-Strum
DR6 0.00 dB -7.75 dB 5:38 05-Milky Way
DR8 0.00 dB -9.30 dB 3:55 06-Pluck (Interlude)
DR7 -0.80 dB -10.05 dB 5:24 07-When I Fall In Love
DR9 0.00 dB -11.04 dB 7:26 08-Jean Pierre
DR7 0.00 dB -8.48 dB 6:30 09-Higher Ground
DR8 0.00 dB -9.64 dB 6:00 10-What Is Hip?
––––––––––––––––––––––––––––––––––––––––

Number of tracks: 10
Official DR value: DR8

Samplerate: 44100 Hz
Channels: 2
Bits per sample: 16
Bitrate: 915 kbps
Codec: FLAC
================================================================================

Marcus Miller - Free (2007) {3 Deuces}
Marcus Miller - Free (2007) {3 Deuces}