Tags
Language
Tags

Maria Muldaur - Meet Me At Midnite (1994) Reissue 2005 [Re-Up]

Posted By: Designol
Maria Muldaur - Meet Me At Midnite (1994) Reissue 2005 [Re-Up]

Maria Muldaur - Meet Me At Midnite (1994) Reissue 2005
EAC | FLAC | Image (Cue&Log) ~ 353 Mb | Mp3 (CBR320) ~ 159 Mb | Scans included
Blues, R&B, Soul | Label: Shout! Factory | # DK 34344 | Time: 00:50:27

Wisely, Shout! Factory has picked up Maria Muldaur's two early-'90s recordings – this one and Louisiana Love Call – from the defunct Black Top label for reissue. While both these recordings are excellent, it's Meet Me at Midnite that offers a portrait of the artist as a hardcore R&B singer of the highest order. Produced by John Porter, Muldaur surrounds herself with crack studio players including Rick Vito, Johnny Lee Schell, Hutch Hutchinson, Bill Payne, and a slew of others. Where Louisiana Love Call focused on the music of New Orleans, Meet Me at Midnite digs deep into various dimensions of the Memphis sound – soul, R&B, and blues – and concentrates on the myriad stages and phases of love. While it's true that the set opens with "Trouble With My Lover" by the Crescent City's Allen Toussaint, its vibe is pure Memphis: funky, dirty grooves, packed in a tight cut-time beat and Muldaur shouting the blues with a big, clear ringing voice that wrenches emotion from every syllable. Likewise, the title cut by Vito and John Herron crawls down into the blues alley with killer slide guitar riffs winding their way around Muldaur's seductive vocals. "Sweet Simple Love" is pure soul power. Muldaur's croon is affective, surrounded by a backing chorus that includes Tracy Nelson, stating her pure spiritually amorous intentions in front of a popping horn section and B-3 choogle. The gritty yet laid-back shimmy and funk of "Recovered Soul" bears the marks of all of Muldaur's strengths: steady yet emotive delivery, in-the-pocket rhythmic phrasing, and communicative in both range and articulation. In all, Meet Me at Midnite is one of those overlooked gems that got a second life. It's one of her strongest recordings; don't miss it.

Review by Thom Jurek, Allmusic.com

Maria Muldaur - Meet Me At Midnite (1994) Reissue 2005 [Re-Up]



Tracklist:

01. Trouble With My Lover (03:28)
02. Meet Me At Midnight (04:02)
03. Send The Man Back Home (05:09)
04. Sweet Simple Love (03:29)
05. Power In Music (04:24)
06. Ease The Pain (04:46)
07. Trouble With Love (04:37)
08. Recovered Soul (04:05)
09. Down So Low (04:24)
10. Serve Somebody (02:43)
11. Woman's Lament (03:24)
12. Mississippi Muddy Water (05:51)


Exact Audio Copy V1.0 beta 4 from 7. December 2014

Отчёт EAC об извлечении, выполненном 31. марта 2015, 14:05

Maria Muldaur / Meet Me At Midnight

Дисковод: SONY CD-RW CRX230ED Adapter: 1 ID: 0

Режим чтения : Достоверность
Использование точного потока : Да
Отключение кэша аудио : Да
Использование указателей C2 : Нет

Коррекция смещения при чтении : 6
Способность читать области Lead-in и Lead-out : Нет
Заполнение пропущенных сэмплов тишиной : Да
Удаление блоков с тишиной в начале и конце : Нет
При вычислениях CRC использовались нулевые сэмплы : Да
Интерфейс : Встроенный Win32-интерфейс для Win NT/2000

Выходной формат : Внутренние WAV-операции
Формат сэмплов : 44.100 Гц; 16 бит; стерео


TOC извлечённого CD

Трек | Старт | Длительность | Начальный сектор | Конечный сектор
––––––––––––––––––––––––––––––––––-
1 | 0:00.00 | 3:28.02 | 0 | 15601
2 | 3:28.02 | 4:02.60 | 15602 | 33811
3 | 7:30.62 | 5:09.15 | 33812 | 57001
4 | 12:40.02 | 3:29.43 | 57002 | 72719
5 | 16:09.45 | 4:24.02 | 72720 | 92521
6 | 20:33.47 | 4:46.63 | 92522 | 114034
7 | 25:20.35 | 4:37.12 | 114035 | 134821
8 | 29:57.47 | 4:05.70 | 134822 | 153266
9 | 34:03.42 | 4:24.43 | 153267 | 173109
10 | 38:28.10 | 2:43.45 | 173110 | 185379
11 | 41:11.55 | 3:24.40 | 185380 | 200719
12 | 44:36.20 | 5:51.37 | 200720 | 227081


Характеристики диапазона извлечения и сообщения об ошибках

Выбранный диапазон

Имя файла F:\MusicCD\Torrent\Maria Muldaur - Meet Me At Midnight\Maria Muldaur - Meet Me At Midnight.wav

Пиковый уровень 100.0 %
Скорость извлечения 7.3 X
Качество диапазона 100.0 %
CRC теста 4904D9BB
CRC копии 4904D9BB
Копирование… OK

Ошибок не произошло


AccurateRip: сводка

Трек 1 : извлечено точно (доверие 5) [42BEC187] (AR v2)
Трек 2 : извлечено точно (доверие 5) [E28EBB91] (AR v2)
Трек 3 : извлечено точно (доверие 5) [550F64B9] (AR v2)
Трек 4 : извлечено точно (доверие 5) [59F8179A] (AR v2)
Трек 5 : извлечено точно (доверие 5) [D5EB0FDA] (AR v2)
Трек 6 : извлечено точно (доверие 5) [F3051CCD] (AR v2)
Трек 7 : извлечено точно (доверие 5) [FAE381A5] (AR v2)
Трек 8 : извлечено точно (доверие 5) [8B460269] (AR v2)
Трек 9 : извлечено точно (доверие 5) [F56A7049] (AR v2)
Трек 10 : извлечено точно (доверие 5) [FE42464D] (AR v2)
Трек 11 : извлечено точно (доверие 5) [1948865C] (AR v2)
Трек 12 : извлечено точно (доверие 5) [47F3C106] (AR v2)

Все треки извлечены точно

Конец отчёта

–– CUETools DB Plugin V2.1.4

[CTDB TOCID: 4U22NNjJXzV9_W.F3QKmMUNwiZg-] found
Submit result: 4U22NNjJXzV9_W.F3QKmMUNwiZg- has been confirmed
Track | CTDB Status
1 | (2/2) Accurately ripped
2 | (2/2) Accurately ripped
3 | (2/2) Accurately ripped
4 | (2/2) Accurately ripped
5 | (2/2) Accurately ripped
6 | (2/2) Accurately ripped
7 | (2/2) Accurately ripped
8 | (2/2) Accurately ripped
9 | (2/2) Accurately ripped
10 | (2/2) Accurately ripped
11 | (2/2) Accurately ripped
12 | (2/2) Accurately ripped


==== Контрольная сумма отчёта E924D5369DD378A886BA8427C1411A75BBEAD62E5362F3BA57256CA86C23853F ====

foobar2000 1.2 / Dynamic Range Meter 1.1.1
log date: 2015-04-01 14:31:24

––––––––––––––––––––––––––––––––––––––––
Analyzed: Maria Muldaur / Meet Me At Midnight
––––––––––––––––––––––––––––––––––––––––

DR Peak RMS Duration Track
––––––––––––––––––––––––––––––––––––––––
DR11 0.00 dB -13.32 dB 3:28 01-Trouble With My Lover
DR10 -0.55 dB -12.21 dB 4:03 02-Meet Me At Midnight
DR12 -0.34 dB -14.97 dB 5:09 03-Send The Man Back Home
DR10 -0.73 dB -12.26 dB 3:30 04-Sweet Simple Love
DR10 0.00 dB -12.31 dB 4:24 05-Power In Music
DR11 -0.57 dB -14.64 dB 4:47 06-Ease The Pain
DR11 -0.60 dB -14.17 dB 4:37 07-Trouble With Love
DR11 -0.66 dB -13.59 dB 4:06 08-Recovered Soul
DR12 0.00 dB -15.45 dB 4:25 09-Down So Low
DR11 -0.98 dB -13.39 dB 2:44 10-Serve Somebody
DR10 -1.38 dB -15.87 dB 3:25 11-Woman's Lament
DR12 -0.30 dB -14.70 dB 5:51 12-Mississippi Muddy Water
––––––––––––––––––––––––––––––––––––––––

Number of tracks: 12
Official DR value: DR11

Samplerate: 44100 Hz
Channels: 2
Bits per sample: 16
Bitrate: 858 kbps
Codec: FLAC
================================================================================

Maria Muldaur - Meet Me At Midnite (1994) Reissue 2005 [Re-Up]

Maria Muldaur - Meet Me At Midnite (1994) Reissue 2005 [Re-Up]

All thanks to original releaser - squirr

More interesting music in My Blog