Tags
Language
Tags

Marilena Paradisi - I'll Never Be the Same (2003)

Posted By:
Marilena Paradisi - I'll Never Be the Same (2003)

Marilena Paradisi - I'll Never Be the Same (2003)
EAC Rip | FLAC (tracks+.cue+log) - 305 MB | MP3 CBR 320 kbps (LAME 3.93) - 127 MB | Covers - 21 MB
Genre: Vocal Jazz | RAR 3% Rec. | Label: Philology (W 223.2)

This seems to be singer Marilena Paradisi's debut recording as a leader, though there are no liner notes to provide any background about her career. Accompanied by an excellent rhythm section, which includes pianist Paolo Tombolesi, bassist Piero Leveratto, and drummer Eliot Zigmund (a veteran of pianist Bill Evans' trio), Paradisi contributed all of the arrangements for her rather interesting program. She captures the sassy, self-confident mood of the girl unjustly abandoned in "You Won't Forget Me," while she shines in the bossa nova setting of "Laura." Her wordless introduction to "Detour Ahead" is beautifully mirrored by Tombolesi. But Paradisi especially excels in her two duets: the tasty "If You Go" with Leveratto and the strutting rendition of "It's All Right With Me" with Zigmund (though his drums are a bit too prominent in the mix). Paradisi's enunciation could use some work in a few places, but this delightful singer is well worth checking out.
Tracklist:
01. You're My Thrill
02. You Won't Forget Me
03. Slow Hot Wind
04. Too Late Now
05. Laura
06. Detour Ahead
07. If You Go
08. Where Are the Words
09. A Flower Is a Lovesome Thing
10. All Night Long
11. It's All Right with Me

Total time: 54:01

Exact Audio Copy V1.6 from 23. October 2020

EAC extraction logfile from 11. December 2020, 8:31

Marilena Paradisi / I'll Never Be the Same

Used drive : HL-DT-STDVD-ROM GDR8161B Adapter: 1 ID: 0

Read mode : Secure
Utilize accurate stream : Yes
Defeat audio cache : Yes
Make use of C2 pointers : No

Read offset correction : 102
Overread into Lead-In and Lead-Out : No
Fill up missing offset samples with silence : Yes
Delete leading and trailing silent blocks : No
Null samples used in CRC calculations : Yes
Used interface : Native Win32 interface for Win NT & 2000
Gap handling : Appended to previous track

Used output format : User Defined Encoder
Selected bitrate : 768 kBit/s
Quality : High
Add ID3 tag : No
Command line compressor : C:\Program Files (x86)\Exact Audio Copy\Flac\flac.exe
Additional command line options : -8 -V -T "ARTIST=%artist%" -T "TITLE=%title%" -T "ALBUM=%albumtitle%" -T "DATE=%year%" -T "TRACKNUMBER=%tracknr%" -T "TOTALTRACKS=%numtracks%" -T "GENRE=%genre%" -T "ALBUMARTIST=%albumartist%" -T "ALBUM ARTIST=%albumartist%" -T "COMMENT=EAC Secure Mode, Test & Copy, AccurateRip, FLAC -8" %source%


TOC of the extracted CD

Track | Start | Length | Start sector | End sector
––––––––––––––––––––––––––––-
1 | 0:00.00 | 5:28.13 | 0 | 24612
2 | 5:28.13 | 4:13.28 | 24613 | 43615
3 | 9:41.41 | 4:01.50 | 43616 | 61740
4 | 13:43.16 | 4:06.46 | 61741 | 80236
5 | 17:49.62 | 4:41.03 | 80237 | 101314
6 | 22:30.65 | 6:39.66 | 101315 | 131305
7 | 29:10.56 | 3:29.40 | 131306 | 147020
8 | 32:40.21 | 5:41.25 | 147021 | 172620
9 | 38:21.46 | 6:33.14 | 172621 | 202109
10 | 44:54.60 | 6:14.35 | 202110 | 230194
11 | 51:09.20 | 2:51.64 | 230195 | 243083


Track 1

Filename D:\TORRENT\Marilena Paradisi - I'll Never Be the Same\01 - You're My Thrill.wav

Pre-gap length 0:00:02.00

Peak level 96.6 %
Extraction speed 5.2 X
Track quality 100.0 %
Test CRC 50A4A8BD
Copy CRC 50A4A8BD
Accurately ripped (confidence 5) [B73D5C98] (AR v2)
Copy OK

Track 2

Filename D:\TORRENT\Marilena Paradisi - I'll Never Be the Same\02 - You Won't Forget Me.wav

Pre-gap length 0:00:02.00

Peak level 96.6 %
Extraction speed 5.6 X
Track quality 100.0 %
Test CRC 596E6064
Copy CRC 596E6064
Accurately ripped (confidence 5) [5C6D504C] (AR v2)
Copy OK

Track 3

Filename D:\TORRENT\Marilena Paradisi - I'll Never Be the Same\03 - Slow Hot Wind.wav

Pre-gap length 0:00:02.00

Peak level 96.6 %
Extraction speed 5.3 X
Track quality 99.9 %
Test CRC 4C6B14AA
Copy CRC 4C6B14AA
Accurately ripped (confidence 5) [193782E8] (AR v2)
Copy OK

Track 4

Filename D:\TORRENT\Marilena Paradisi - I'll Never Be the Same\04 - Too Late Now.wav

Pre-gap length 0:00:02.00

Peak level 93.8 %
Extraction speed 6.4 X
Track quality 100.0 %
Test CRC 1183FB5B
Copy CRC 1183FB5B
Accurately ripped (confidence 5) [70583549] (AR v2)
Copy OK

Track 5

Filename D:\TORRENT\Marilena Paradisi - I'll Never Be the Same\05 - Laura.wav

Pre-gap length 0:00:02.00

Peak level 96.6 %
Extraction speed 7.0 X
Track quality 100.0 %
Test CRC 38FB0817
Copy CRC 38FB0817
Accurately ripped (confidence 5) [FB0A9FBD] (AR v2)
Copy OK

Track 6

Filename D:\TORRENT\Marilena Paradisi - I'll Never Be the Same\06 - Detour Ahead.wav

Pre-gap length 0:00:02.00

Peak level 97.7 %
Extraction speed 7.7 X
Track quality 100.0 %
Test CRC 780CE6A8
Copy CRC 780CE6A8
Accurately ripped (confidence 5) [131DB832] (AR v2)
Copy OK

Track 7

Filename D:\TORRENT\Marilena Paradisi - I'll Never Be the Same\07 - If You Go.wav

Pre-gap length 0:00:02.00

Peak level 87.0 %
Extraction speed 7.6 X
Track quality 100.0 %
Test CRC CFEAD168
Copy CRC CFEAD168
Accurately ripped (confidence 5) [FFA35BB1] (AR v2)
Copy OK

Track 8

Filename D:\TORRENT\Marilena Paradisi - I'll Never Be the Same\08 - Where Are the Words.wav

Pre-gap length 0:00:02.00

Peak level 96.6 %
Extraction speed 8.4 X
Track quality 100.0 %
Test CRC 4CDD3F86
Copy CRC 4CDD3F86
Accurately ripped (confidence 5) [405AD2CD] (AR v2)
Copy OK

Track 9

Filename D:\TORRENT\Marilena Paradisi - I'll Never Be the Same\09 - A Flower Is a Lovesome Thing.wav

Pre-gap length 0:00:02.00

Peak level 96.6 %
Extraction speed 8.9 X
Track quality 100.0 %
Test CRC 6FDB4642
Copy CRC 6FDB4642
Accurately ripped (confidence 5) [1722511C] (AR v2)
Copy OK

Track 10

Filename D:\TORRENT\Marilena Paradisi - I'll Never Be the Same\10 - All Night Long.wav

Pre-gap length 0:00:02.00

Peak level 96.6 %
Extraction speed 8.4 X
Track quality 99.9 %
Test CRC 6A435F3F
Copy CRC 6A435F3F
Accurately ripped (confidence 5) [35D4FC7D] (AR v2)
Copy OK

Track 11

Filename D:\TORRENT\Marilena Paradisi - I'll Never Be the Same\11 - It's All Right With Me.wav

Pre-gap length 0:00:02.00

Peak level 96.6 %
Extraction speed 8.6 X
Track quality 100.0 %
Test CRC 7F98538E
Copy CRC 7F98538E
Accurately ripped (confidence 5) [1E107454] (AR v2)
Copy OK


All tracks accurately ripped

No errors occurred

End of status report

–– CUETools DB Plugin V2.1.6

[CTDB TOCID: 2.UDnz5VlvPMRXwYV.v3MoRUceE-] found
Submit result: 2.UDnz5VlvPMRXwYV.v3MoRUceE- has been confirmed
Track | CTDB Status
1 | (3/3) Accurately ripped
2 | (3/3) Accurately ripped
3 | (3/3) Accurately ripped
4 | (3/3) Accurately ripped
5 | (3/3) Accurately ripped
6 | (3/3) Accurately ripped
7 | (3/3) Accurately ripped
8 | (3/3) Accurately ripped
9 | (3/3) Accurately ripped
10 | (3/3) Accurately ripped
11 | (3/3) Accurately ripped


==== Log checksum 68633856419DFC122066876093C658C61663077A6C2FBFACCE03174A29927257 ====

[CUETools log; Date: 17.12.2020 19:23:09; Version: 2.1.4]
[CTDB TOCID: 2.UDnz5VlvPMRXwYV.v3MoRUceE-] found.
Track | CTDB Status
1 | (4/4) Accurately ripped
2 | (4/4) Accurately ripped
3 | (4/4) Accurately ripped
4 | (4/4) Accurately ripped
5 | (4/4) Accurately ripped
6 | (4/4) Accurately ripped
7 | (4/4) Accurately ripped
8 | (4/4) Accurately ripped
9 | (4/4) Accurately ripped
10 | (4/4) Accurately ripped
11 | (4/4) Accurately ripped
[AccurateRip ID: 0015f0a3-00bf9402-860ca90b] found.
Track [ CRC | V2 ] Status
01 [cca9556f|b73d5c98] (0+5/5) Accurately ripped
02 [99e274df|5c6d504c] (0+5/5) Accurately ripped
03 [155b31ba|193782e8] (0+5/5) Accurately ripped
04 [5e6bc5d2|70583549] (0+5/5) Accurately ripped
05 [744835a2|fb0a9fbd] (0+5/5) Accurately ripped
06 [a310fa4f|131db832] (0+5/5) Accurately ripped
07 [e28a13a3|ffa35bb1] (0+5/5) Accurately ripped
08 [635a0ec3|405ad2cd] (0+5/5) Accurately ripped
09 [8c6d06be|1722511c] (0+5/5) Accurately ripped
10 [7e3791dc|35d4fc7d] (0+5/5) Accurately ripped
11 [aa09fe58|1e107454] (0+5/5) Accurately ripped

Track Peak [ CRC32 ] [W/O NULL] [ LOG ]
– 97,7 [577B61BD] [B3BD0D5A]
01 96,6 [50A4A8BD] [96555A5A] CRC32
02 96,6 [596E6064] [50CDB7FD] CRC32
03 96,5 [4C6B14AA] [9DBAE5E0] CRC32
04 93,8 [1183FB5B] [A229B727] CRC32
05 96,6 [38FB0817] [B5910E1F] CRC32
06 97,7 [780CE6A8] [A1AFBFB2] CRC32
07 87,0 [CFEAD168] [540C912E] CRC32
08 96,6 [4CDD3F86] [926AC7AF] CRC32
09 96,6 [6FDB4642] [303E680A] CRC32
10 96,6 [6A435F3F] [305F3328] CRC32
11 96,6 [7F98538E] [F5012746] CRC32

Thanks to pieropicco