Subcategories

Marko Ylönen, Lilli Maijala, Olivier Thiery double, Juha Kangas - Nordgren: As in a Dream (2019)

Posted By: tirexiss
Marko Ylönen, Lilli Maijala, Olivier Thiery double, Juha Kangas - Nordgren: As in a Dream (2019)

Marko Ylönen, Lilli Maijala, Olivier Thiery double, Juha Kangas - Nordgren: As in a Dream (2019)
EAC | FLAC (image+.cue, log) | Covers Included | 71:31 | 346 MB
Genre: Classical | Label: Alba Records | Catalog: ABCD 435

In the booklet note for this release, Pehr Hendrik Nordgren is considered “among the most outstanding masters of this grossly underrated generation”, that is, the generation that fell outside the avant-garde wave of famous names born in the 1920s, and those who reacted against atonality and returned to tradition and easily recognisable genres such as minimalism. Nordgren has done well in numerous recordings on the Alba label and elsewhere, BIS and Finlandia to name two, but still doesn’t really have ‘household name’ status. Both As in a Dream and the Concerto for Viola, Double Bass and Chamber Orchestra Op. 87 are world premiere recordings.

This well-recorded and interestingly put together programme has a certain stamp of authority in the form of conductor Juha Kangas, founder of the Ostrobothian Chamber Orchestra, who was a friend of the composer from the late 1960s onwards. The Third Cello Concerto has some wonderfully lyrical moments, especially in the Adagio third movement, but is by no means facile in its idiom and in the contrasts between each of its four movements. It has a no-nonsense start, orchestra and soloist commencing simultaneously in a dark mood, but in music that is filled with subtle chromaticism and refined resolutions. Darkness moves toward mystery in the accompaniment of the second movement, with rhythmic pizzicati and other things going on in the orchestra. The solo part is balanced too loud to be able to hear what is happening in the sotto voce orchestra, and if there is any criticism to be had this would be mine. That Adagio third movement is exquisite, and the final Moderato – Allegretto combines previous ideas with an added dash of drama, spicing up the dark moods in the orchestra and whipping up climactic excitement before an extended cadenza-like solo and a dip in energy before the spirit of Shostakovich kicks off the violently virtuoso last section.

As in a Dream was originally written for cello and piano, and the version heard here is an orchestration by Juha Kangas. With microtonal aspects to the solo part and denser, cluster-like harmonies from the strings, this has a more abstract feel than the Cello Concerto, but lyrical expressiveness and high drama are never far away. As the title suggests, a dreamlike atmosphere pervades, but this has many aspects. We never quite reach Mahlerian nightmarishness but there are some tougher passages to traverse, and things are by no means always sweetness and beauty.

The Concerto for Viola, Double Bass and Chamber Orchestra includes piano and percussion to the strings, so another new sound-world opens up in an extended single movement work of substance and quality. The double bass is given jazzy pizzicato passages early on, and the clarity of identity between the two string soloists, wrong-footing us in their transposed sonorities (violin and cello would be more expected), and having richly fascinating dialogues that range between rhetorical discourse to eloquent arias. Christoph Schlüren’s booklet notes tell us that “the music passes through changing aggregate states like chapters in a novel”, and a first hearing doesn’t reveal structural clarity as a foreground feature. This ‘non-representational narrative’ is compelling however, and the guessing game is very much one of fascination rather than frustration. Orchestral colour and some fine effects of timbre stimulate our ears, while surprises break through a slow but ever ongoing momentum, defining each new musical space like the uniquely differing chambers of a discomfortingly surreal but richly ornate hotel.

This is a very fine SACD recording of an excellent orchestra and superlative soloists. These well-crafted works command your attention and repay repeated hearing, being full of imaginative content and some remarkable effects – the whole leaving an impression of dark and powerful multi-layered beauty reflected by the cover illustration, Unemla or ‘Dream’ by Hugo Simberg. – Dominy Clements

Marko Ylönen, Lilli Maijala, Olivier Thiery double, Juha Kangas - Nordgren: As in a Dream (2019)

Track List:

Pehr Henrik Nordgren (1944-2008)

[1]-[4] Concerto No.3 for Cello & String Orchestra, Op.82
[5] As in a Dream for Cello and 19 strings, Op.20
[6] Concerto for Viola, Double Bass and Chamber Orchestra, Op.87

Performers:
Marko Ylönen, cello ([1]-[5])
Lilli Maijala, viola ([6])
Olivier Thiery, double bass ([6])
Ostrobothnian Chamber Orchestra
Juha Kangas, conductor

Exact Audio Copy V1.3 from 2. September 2016

EAC extraction logfile from 26. March 2019, 21:22

Marko Ylönen, Ostrobothnian Chamber Orchestra, Juha Kangas / Nordgren - As in a Dream

Used drive : ASUS SDRW-08U7M-U Adapter: 1 ID: 0

Read mode : Secure
Utilize accurate stream : Yes
Defeat audio cache : Yes
Make use of C2 pointers : No

Read offset correction : 6
Overread into Lead-In and Lead-Out : No
Fill up missing offset samples with silence : Yes
Delete leading and trailing silent blocks : No
Null samples used in CRC calculations : Yes
Used interface : Native Win32 interface for Win NT & 2000

Used output format : User Defined Encoder
Selected bitrate : 128 kBit/s
Quality : High
Add ID3 tag : No
Command line compressor : C:\Program Files (x86)\Exact Audio Copy\Flac\flac.exe
Additional command line options : -V -8 -T "Date=%year%" -T "Genre=%genre%" %source%


TOC of the extracted CD

Track | Start | Length | Start sector | End sector
––––––––––––––––––––––––––––-
1 | 0:00.00 | 5:15.12 | 0 | 23636
2 | 5:15.12 | 5:19.11 | 23637 | 47572
3 | 10:34.23 | 6:35.70 | 47573 | 77267
4 | 17:10.18 | 8:14.45 | 77268 | 114362
5 | 25:24.63 | 11:26.12 | 114363 | 165824
6 | 36:51.00 | 34:38.51 | 165825 | 321725


Range status and errors

Selected range

Filename C:\temp\Nordgren - As in a Dream - 2019\Nordgren - As in a Dream.wav

Peak level 89.5 %
Extraction speed 5.1 X
Range quality 100.0 %
Test CRC E1918C84
Copy CRC E1918C84
Copy OK

No errors occurred


AccurateRip summary

Track 1 not present in database
Track 2 not present in database
Track 3 not present in database
Track 4 not present in database
Track 5 not present in database
Track 6 not present in database

None of the tracks are present in the AccurateRip database

End of status report

==== Log checksum 3506D51FB5B559F70A66A1EE280E1A90B4277F2D28B42D90CB56FF4F6017F220 ====

Thanks to the Original ripper (A-Z)!

Welcome to my blog!

Download: