Subcategories

Martin Pearlman, Boston Baroque - Gluck: Iphigénie en Tauride (2000)

Posted By: ArlegZ
Martin Pearlman, Boston Baroque - Gluck: Iphigénie en Tauride (2000)

Martin Pearlman, Boston Baroque - Gluck: Iphigénie en Tauride (2000)
EAC | FLAC | Image (Cue & Log) ~ 768 Mb | Total time: 60:12+73:54 | Scans included
Classical | Label: Telarc | CD-80546 | Recorded: 1999

The most popular opera of Gluck might be Orfeo ed Euridice, but this one, Iphigénie en Tauride, is probably his most dramatically involving. It is about familial love and deep friendship and, as such, lacks the usual "love" music and interest. But the waters here run deep, and Martin Pearlman and his singers plumb those depths. Christine Goerke's Iphigénie is dignified, rich with expression and beautiful tone. Almost no less good is the Orestes of Rodney Gilfry, who uses his high baritone with intelligence and ease, singing tenderly when needed and explosively at other times. Vinson Cole brings grainy, expressive tenor to the role of Pylades firmly and effectively; and Stephen Salters, as the villainous Thaos, might sing coarsely, but it suits the character. Pearlman gets vivid, exciting playing from his period-instrument Boston Baroque and, on the second CD, offers a 28-minute, music-illustrated lecture after the close of the opera. The sound is luxurious and clear, and the singers' diction is superb. This set is a wonderful surprise.
–Robert Levine

Performer:
Iphigénie - Christine Goerke
Oreste - Rodney Gilfry
Pylade - Vinson Cole
Thoas - Stephen Salters
First priestess and a Greek woman - Sharon Baker
Second priestess and the goddess Diana - Jayne West
Boston Baroque
Conductor - Martin Pearlman

Track List:
CD1:
Act I
01. Introduction and Chorus. Grands Dieux! soyez-nous secourables
02. Recitative. Iphigénie, ô ciel!
03. Chorus. Ô songe affreux! / Recitative. Ô race de Pélops
04. Aria. Ô toi, qui prolongeas mes jours
05. Chorus. Quand verrons-nous tarir nos pleurs?
06. Recitative. Dieux! le malheur en tous lieux suit mes pas
07. Aria. De noirs pressentiments
08. Chorus. Les Dieux apaisent leur courroux / Recitative. Malheureuse! / Chorus. Les Dieux apai
09. Chorus. Il nous fallait du sang
10. Ballet
11. Recitative. Malheureux, quel dessein
12. Chorus. Il nous fallait du sang
Act II
13. Recitative. Quel silence effrayant!
14. Aria.Dieux! qui me poursuivez / Recitative. Quel langage accablant
15. Aria. Unis dès la plus tendre enfance
16. Recitative. Étrangers malheureux
17. Recitative. Dieux! protecteurs de ces affraux rivages
18. Aria. Le calme rentre dans mon coeur
19. Ballet-Pantomime
20. Chorus and Dance. Vengeons et la nature
21. Recitative. Je vois toute l'horreur
22. Chorus. Patrie infortunée
23. Aria. Ô malheureuse Iphigénie! / Recitative. Honorez avec moi
24. Chorus. Contemplez ces tristes apprêts
CD2:
Act III
01. Recitative. Je cède à vos désirs / Aria. D'une image, hélas!
02. Recitative. Voici ces captifs malheureux
03. Recitative. Ô joie inattendue!
04. Trio. Je pourrais du tyran tromper la barbarie
05. Recitative. Ô moment trop heureux!
06. Duet. Et tu prétends encore que tu m'aimes? / Recitative. Quoi! je ne vaincrai pas ta consta
07. Duet. Ah! mon ami
08. Recitative. Malgré toi, je saurai t'arracher / Recitative. Quoi? toujours à mes voeux
09. Recitative. Puisque le Ciel à vos jours s'intéresse
10. Aria. Divinité des grandes âmes
Act IV
11. Recitative. Non, cet affreux devoir / Aria. Je t'implore et je tremble
12. Chorus. Ô Diane, sois-nous propice! / Recitative. La force m'abandonne
13. Hymn. Chaste fille de Latone / Recitative. Quel moment! Dieux puissants / Aria. Ah! laissons
14. Recitative. Tremblez! tremblez! on sait tout le mystère
15. Aria. De tes forfaits la trame est découverte / Recitative. Qu'oses-tu proposer, barbare?
16. Chorus. Vengeons le sang de notre Roi!
17. Recitative. Arrêez! écoutez mes décrets éternels
18. Recitative. Ta soeur! qu'ai-je entendu? / Aria. Dans cet objet touchant
19. Final Chorus. Les Dieux, longtemps en courroux
20. Martin Pearlman, director of the Boston Baroque, discusses Iphigénie en Tauride


Exact Audio Copy V1.5 from 20. February 2020

EAC extraction logfile from 26. March 2020, 14:28

Martin Pearlman / Gluck - Iphigénie en Tauride CD1

Used drive : HL-DT-STBD-RE WH16NS40 Adapter: 1 ID: 0

Read mode : Secure
Utilize accurate stream : Yes
Defeat audio cache : Yes
Make use of C2 pointers : No

Read offset correction : 6
Overread into Lead-In and Lead-Out : No
Fill up missing offset samples with silence : Yes
Delete leading and trailing silent blocks : No
Null samples used in CRC calculations : Yes
Used interface : Native Win32 interface for Win NT & 2000

Used output format : User Defined Encoder
Selected bitrate : 1024 kBit/s
Quality : High
Add ID3 tag : No
Command line compressor : C:\Program Files (x86)\Exact Audio Copy\FLAC\FLAC.EXE
Additional command line options : -6 -V -T "ARTIST=%artist%" -T "TITLE=%title%" -T "ALBUM=%albumtitle%" -T "DATE=%year%" -T "TRACKNUMBER=%tracknr%" -T "GENRE=%genre%" -T "COMMENT=%comment%" -T "BAND=%albuminterpret%" -T "ALBUMARTIST=%albuminterpret%" -T "COMPOSER=%composer%" %haslyrics%–tag-from-file=LYRICS="%lyricsfile%"%haslyrics% -T "DISCNUMBER=%cdnumber%" -T "TOTALDISCS=%totalcds%" -T "TOTALTRACKS=%numtracks%" %hascover%–picture="%coverfile%"%hascover% %source% -o %dest%


TOC of the extracted CD

Track | Start | Length | Start sector | End sector
––––––––––––––––––––––––––––-
1 | 0:00.00 | 6:57.25 | 0 | 31299
2 | 6:57.25 | 3:44.50 | 31300 | 48149
3 | 10:42.00 | 3:01.27 | 48150 | 61751
4 | 13:43.27 | 3:17.30 | 61752 | 76556
5 | 17:00.57 | 0:57.40 | 76557 | 80871
6 | 17:58.22 | 1:18.18 | 80872 | 86739
7 | 19:16.40 | 1:47.07 | 86740 | 94771
8 | 21:03.47 | 2:53.35 | 94772 | 107781
9 | 23:57.07 | 0:43.50 | 107782 | 111056
10 | 24:40.57 | 2:15.58 | 111057 | 121239
11 | 26:56.40 | 0:43.27 | 121240 | 124491
12 | 27:39.67 | 0:48.48 | 124492 | 128139
13 | 28:28.40 | 3:03.47 | 128140 | 141911
14 | 31:32.12 | 2:39.20 | 141912 | 153856
15 | 34:11.32 | 3:35.28 | 153857 | 170009
16 | 37:46.60 | 1:13.10 | 170010 | 175494
17 | 38:59.70 | 1:15.67 | 175495 | 181186
18 | 40:15.62 | 2:00.23 | 181187 | 190209
19 | 42:16.10 | 0:57.50 | 190210 | 194534
20 | 43:13.60 | 1:40.00 | 194535 | 202034
21 | 44:53.60 | 5:31.35 | 202035 | 226894
22 | 50:25.20 | 0:52.40 | 226895 | 230834
23 | 51:17.60 | 5:14.40 | 230835 | 254424
24 | 56:32.25 | 3:40.12 | 254425 | 270936


Range status and errors

Selected range

Filename C:\Users\Grant\Desktop\Martin Pearlman - Gluck - Iphigénie en Tauride CD1.wav

Peak level 100.0 %
Extraction speed 8.3 X
Range quality 99.9 %
Test CRC 31EF0B9F
Copy CRC 31EF0B9F
Copy OK

No errors occurred


AccurateRip summary

Track 1 accurately ripped (confidence 7) [8D54FAEA] (AR v2)
Track 2 accurately ripped (confidence 7) [6D5407EE] (AR v2)
Track 3 accurately ripped (confidence 7) [34D0DB30] (AR v2)
Track 4 accurately ripped (confidence 7) [C2EF894A] (AR v2)
Track 5 accurately ripped (confidence 7) [2A09963D] (AR v2)
Track 6 accurately ripped (confidence 7) [2A078AA0] (AR v2)
Track 7 accurately ripped (confidence 7) [42F3101D] (AR v2)
Track 8 accurately ripped (confidence 7) [0699F19D] (AR v2)
Track 9 accurately ripped (confidence 7) [8FBB2CA2] (AR v2)
Track 10 accurately ripped (confidence 7) [C870507C] (AR v2)
Track 11 accurately ripped (confidence 7) [7B0623D7] (AR v2)
Track 12 accurately ripped (confidence 7) [4D13C2AA] (AR v2)
Track 13 accurately ripped (confidence 7) [F32FEE1A] (AR v2)
Track 14 accurately ripped (confidence 7) [0A5579ED] (AR v2)
Track 15 accurately ripped (confidence 7) [E7855662] (AR v2)
Track 16 accurately ripped (confidence 7) [77A8F8ED] (AR v2)
Track 17 accurately ripped (confidence 7) [379EC8D6] (AR v2)
Track 18 accurately ripped (confidence 7) [5C8FDF47] (AR v2)
Track 19 accurately ripped (confidence 7) [156C9CE4] (AR v2)
Track 20 accurately ripped (confidence 7) [6E7EE7C0] (AR v2)
Track 21 accurately ripped (confidence 7) [86F962F5] (AR v2)
Track 22 accurately ripped (confidence 7) [E36138B3] (AR v2)
Track 23 accurately ripped (confidence 7) [359623FB] (AR v2)
Track 24 accurately ripped (confidence 7) [E893AD6C] (AR v2)

All tracks accurately ripped

End of status report

–– CUETools DB Plugin V2.1.6

[CTDB TOCID: FL6bV2p5lBbKPnEn.35kYzZwS2U-] found
Submit result: FL6bV2p5lBbKPnEn.35kYzZwS2U- has been confirmed
Track | CTDB Status
1 | ( 9/20) Accurately ripped
2 | ( 9/20) Accurately ripped
3 | ( 9/20) Accurately ripped
4 | ( 9/20) Accurately ripped
5 | ( 9/20) Accurately ripped
6 | ( 9/20) Accurately ripped
7 | ( 9/20) Accurately ripped
8 | ( 9/20) Accurately ripped
9 | ( 9/20) Accurately ripped
10 | ( 9/20) Accurately ripped
11 | ( 9/20) Accurately ripped
12 | ( 9/20) Accurately ripped
13 | ( 8/20) Accurately ripped
14 | ( 9/20) Accurately ripped
15 | ( 8/20) Accurately ripped
16 | ( 9/20) Accurately ripped
17 | ( 8/20) Accurately ripped
18 | ( 9/20) Accurately ripped
19 | ( 8/20) Accurately ripped
20 | ( 9/20) Accurately ripped
21 | ( 8/20) Accurately ripped
22 | ( 9/20) Accurately ripped
23 | ( 9/20) Accurately ripped
24 | ( 9/20) Accurately ripped


==== Log checksum 4596AE83AA24DD166B87AEC07D74661269535887054F8DAE07BA73100E9923E6 ====


Exact Audio Copy V1.5 from 20. February 2020

EAC extraction logfile from 26. March 2020, 15:11

Martin Pearlman / Gluck - Iphigénie en Tauride CD2

Used drive : HL-DT-STBD-RE WH16NS40 Adapter: 1 ID: 0

Read mode : Secure
Utilize accurate stream : Yes
Defeat audio cache : Yes
Make use of C2 pointers : No

Read offset correction : 6
Overread into Lead-In and Lead-Out : No
Fill up missing offset samples with silence : Yes
Delete leading and trailing silent blocks : No
Null samples used in CRC calculations : Yes
Used interface : Native Win32 interface for Win NT & 2000

Used output format : User Defined Encoder
Selected bitrate : 1024 kBit/s
Quality : High
Add ID3 tag : No
Command line compressor : C:\Program Files (x86)\Exact Audio Copy\FLAC\FLAC.EXE
Additional command line options : -6 -V -T "ARTIST=%artist%" -T "TITLE=%title%" -T "ALBUM=%albumtitle%" -T "DATE=%year%" -T "TRACKNUMBER=%tracknr%" -T "GENRE=%genre%" -T "COMMENT=%comment%" -T "BAND=%albuminterpret%" -T "ALBUMARTIST=%albuminterpret%" -T "COMPOSER=%composer%" %haslyrics%–tag-from-file=LYRICS="%lyricsfile%"%haslyrics% -T "DISCNUMBER=%cdnumber%" -T "TOTALDISCS=%totalcds%" -T "TOTALTRACKS=%numtracks%" %hascover%–picture="%coverfile%"%hascover% %source% -o %dest%


TOC of the extracted CD

Track | Start | Length | Start sector | End sector
––––––––––––––––––––––––––––-
1 | 0:00.00 | 4:02.05 | 0 | 18154
2 | 4:02.05 | 0:08.12 | 18155 | 18766
3 | 4:10.17 | 1:27.70 | 18767 | 25361
4 | 5:38.12 | 3:41.48 | 25362 | 41984
5 | 9:19.60 | 0:37.67 | 41985 | 44826
6 | 9:57.52 | 4:47.63 | 44827 | 66414
7 | 14:45.40 | 2:37.27 | 66415 | 78216
8 | 17:22.67 | 3:05.20 | 78217 | 92111
9 | 20:28.12 | 0:56.63 | 92112 | 96374
10 | 21:25.00 | 2:04.32 | 96375 | 105706
11 | 23:29.32 | 3:45.13 | 105707 | 122594
12 | 27:14.45 | 4:38.32 | 122595 | 143476
13 | 31:53.02 | 5:37.18 | 143477 | 168769
14 | 37:30.20 | 0:53.67 | 168770 | 172811
15 | 38:24.12 | 1:26.58 | 172812 | 179319
16 | 39:50.70 | 0:42.12 | 179320 | 182481
17 | 40:33.07 | 1:32.53 | 182482 | 189434
18 | 42:05.60 | 0:53.17 | 189435 | 193426
19 | 42:59.02 | 2:29.03 | 193427 | 204604
20 | 45:28.05 | 28:25.47 | 204605 | 332526


Range status and errors

Selected range

Filename C:\Users\Grant\Desktop\Martin Pearlman - Gluck - Iphigénie en Tauride CD2.wav

Peak level 100.0 %
Extraction speed 8.9 X
Range quality 100.0 %
Test CRC CF71DB23
Copy CRC CF71DB23
Copy OK

No errors occurred


AccurateRip summary

Track 1 accurately ripped (confidence 7) [7B231AF3] (AR v2)
Track 2 accurately ripped (confidence 7) [4B67DAFE] (AR v2)
Track 3 accurately ripped (confidence 7) [02302D64] (AR v2)
Track 4 accurately ripped (confidence 7) [84C7B0E1] (AR v2)
Track 5 accurately ripped (confidence 7) [77659A54] (AR v2)
Track 6 accurately ripped (confidence 7) [927098A3] (AR v2)
Track 7 accurately ripped (confidence 7) [100EC2B0] (AR v2)
Track 8 accurately ripped (confidence 7) [21C1B2B7] (AR v2)
Track 9 accurately ripped (confidence 7) [ED8EB23F] (AR v2)
Track 10 accurately ripped (confidence 7) [71F92B62] (AR v2)
Track 11 accurately ripped (confidence 7) [2D3D5ED0] (AR v2)
Track 12 accurately ripped (confidence 7) [D14BE53D] (AR v2)
Track 13 accurately ripped (confidence 7) [4B87B7C5] (AR v2)
Track 14 accurately ripped (confidence 7) [294F4C7E] (AR v2)
Track 15 accurately ripped (confidence 7) [74827EC0] (AR v2)
Track 16 accurately ripped (confidence 7) [8D7F8D53] (AR v2)
Track 17 accurately ripped (confidence 7) [5932EC8E] (AR v2)
Track 18 accurately ripped (confidence 7) [C6D77C15] (AR v2)
Track 19 accurately ripped (confidence 7) [75C7F9F7] (AR v2)
Track 20 accurately ripped (confidence 7) [C3E77435] (AR v2)

All tracks accurately ripped

End of status report

–– CUETools DB Plugin V2.1.6

[CTDB TOCID: tDLwxdhQNTgg8KQxGKfXaVG52RU-] found
Submit result: tDLwxdhQNTgg8KQxGKfXaVG52RU- has been confirmed
Track | CTDB Status
1 | ( 7/18) Accurately ripped
2 | ( 8/18) Accurately ripped
3 | ( 8/18) Accurately ripped
4 | ( 7/18) Accurately ripped
5 | ( 8/18) Accurately ripped
6 | ( 6/18) Accurately ripped
7 | ( 7/18) Accurately ripped
8 | ( 6/18) Accurately ripped
9 | ( 7/18) Accurately ripped
10 | ( 7/18) Accurately ripped
11 | ( 7/18) Accurately ripped
12 | ( 7/18) Accurately ripped
13 | ( 6/18) Accurately ripped
14 | ( 7/18) Accurately ripped
15 | ( 8/18) Accurately ripped
16 | ( 7/18) Accurately ripped
17 | ( 7/18) Accurately ripped
18 | ( 7/18) Accurately ripped
19 | ( 7/18) Accurately ripped
20 | ( 7/18) Accurately ripped


==== Log checksum 19ACC3A536939265C684C2AB7CA1DB1BC4F47F2A4445428215215DD882CF77DB ====

Martin Pearlman, Boston Baroque - Gluck: Iphigénie en Tauride (2000)

Thanks to the original releaser