Tags
Language
Tags

Marva Wright - Born With The Blues (1993)

Posted By: gribovar
Marva Wright - Born With The Blues (1993)

Marva Wright - Born With The Blues (1993)
EAC Rip | FLAC (tracks+.cue+log) - 365 MB | MP3 CBR 320 kbps (LAME 3.93) - 138 MB | Covers - 7 MB
Genre: Soul Blues, R&B | RAR 3% Rec. | Label: Sky Ranch Records (881202)

Marva Wright's albums might be filed more often under the blues section than any other, but in truth she's a versatile singer of all forms of New Orleans R&B, venturing into gospel and soul as well. There's no faulting her vocal performances on Born with the Blues; their powerful gutsiness marks her as one of the best blues/R&B singers to emerge in the final decades of the 20th century. It's the material that makes this an uneven record, though a worthwhile one on the whole. Some of the songs are quite good, the title track being a particular highlight for both its minor-keyed melody and vocals with a lived-in intensity that was a rare commodity indeed in '90s blues records. "Pray" is another peak, both for its moody gospel melody and stellar backup by Sonny Landreth on slithering slide guitar. Some of the other songs, however, are only average, so-so blues/R&B efforts, even if the manner in which Wright throws herself into them is never less than wholehearted. The covers of familiar R&B and soul tunes are also variable; it's real hard to do anything new with "Hound Dog," though "Can't Nobody Love You" (a '60s chart single for Solomon Burke) works well, in part because it strips down to just Wright's voice and Freddy Koella's slide guitar. Recorded in 1993 and originally released that year in France, Born with the Blues was issued in the U.S. on Virgin in 1996, and reissued in the U.K. by Shout! in 2006 under the title Do Right Woman, with historical liner notes and a resequenced track order.
Tracklist:
01. The Glitter Queen
02. What's Wrong
03. Three Times
04. Before I Met You
05. Born With The Blues
06. It's Gonna Be Alright
07. Been & Gone
08. Pray
09. Hound Dog
10. It's So Nice
11. He's On The Way
12. Do Right Woman, Do Right Man
13. Can't Nobody Love You

Total time: 58:49

Exact Audio Copy V1.0 beta 3 from 29. August 2011

EAC extraction logfile from 5. May 2015, 21:33

Marva Wright / Born with the blues

Used drive : ASUS DRW-2014L1T Adapter: 3 ID: 0

Read mode : Secure
Utilize accurate stream : Yes
Defeat audio cache : Yes
Make use of C2 pointers : No

Read offset correction : 6
Overread into Lead-In and Lead-Out : No
Fill up missing offset samples with silence : Yes
Delete leading and trailing silent blocks : No
Null samples used in CRC calculations : Yes
Used interface : Native Win32 interface for Win NT & 2000
Gap handling : Appended to previous track

Used output format : User Defined Encoder
Selected bitrate : 1024 kBit/s
Quality : High
Add ID3 tag : No
Command line compressor : C:\Program Files (x86)\Exact Audio Copy\Flac\flac.exe
Additional command line options : -8 -V -T "ARTIST=%artist%" -T "TITLE=%title%" -T "ALBUM=%albumtitle%" -T "DATE=%year%" -T "TRACKNUMBER=%tracknr%" -T "GENRE=%genre%" -T "PERFORMER=%albuminterpret%" -T "COMPOSER=%composer%" %haslyrics%–tag-from-file=LYRICS="%lyricsfile%"%haslyrics% -T "ALBUMARTIST=%albumartist%" -T "DISCNUMBER=%cdnumber%" -T "TOTALDISCS=%totalcds%" -T "TOTALTRACKS=%numtracks%" -T "COMMENT=%comment%" %source% -o %dest%


TOC of the extracted CD

Track | Start | Length | Start sector | End sector
––––––––––––––––––––––––––––-
1 | 0:00.32 | 4:11.33 | 32 | 18889
2 | 4:11.65 | 3:52.52 | 18890 | 36341
3 | 8:04.42 | 3:35.15 | 36342 | 52481
4 | 11:39.57 | 5:15.30 | 52482 | 76136
5 | 16:55.12 | 5:24.03 | 76137 | 100439
6 | 22:19.15 | 5:31.47 | 100440 | 125311
7 | 27:50.62 | 3:04.55 | 125312 | 139166
8 | 30:55.42 | 5:02.18 | 139167 | 161834
9 | 35:57.60 | 5:33.10 | 161835 | 186819
10 | 41:30.70 | 5:45.47 | 186820 | 212741
11 | 47:16.42 | 3:13.13 | 212742 | 227229
12 | 50:29.55 | 5:37.67 | 227230 | 252571
13 | 56:07.47 | 2:42.23 | 252572 | 264744


Track 1

Filename D:\Telechargements\CDRip Lucas\Marva Wright - Born With The Blues (1996) [FLAC]\01 - The glitter queen.wav

Pre-gap length 0:00:02.42

Peak level 99.2 %
Extraction speed 5.3 X
Track quality 100.0 %
Test CRC 04C0C0C2
Copy CRC 04C0C0C2
Accurately ripped (confidence 2) [CA212054] (AR v2)
Copy OK

Track 2

Filename D:\Telechargements\CDRip Lucas\Marva Wright - Born With The Blues (1996) [FLAC]\02 - That's wrong.wav

Pre-gap length 0:00:02.04

Peak level 99.2 %
Extraction speed 5.8 X
Track quality 100.0 %
Test CRC AE5FFE76
Copy CRC AE5FFE76
Accurately ripped (confidence 2) [DDDE31CC] (AR v2)
Copy OK

Track 3

Filename D:\Telechargements\CDRip Lucas\Marva Wright - Born With The Blues (1996) [FLAC]\03 - Three times.wav

Pre-gap length 0:00:01.56

Peak level 99.2 %
Extraction speed 6.2 X
Track quality 100.0 %
Test CRC DBCF6152
Copy CRC DBCF6152
Accurately ripped (confidence 2) [54CEA5C1] (AR v2)
Copy OK

Track 4

Filename D:\Telechargements\CDRip Lucas\Marva Wright - Born With The Blues (1996) [FLAC]\04 - Before I met you.wav

Pre-gap length 0:00:01.80

Peak level 99.2 %
Extraction speed 5.3 X
Track quality 99.9 %
Test CRC 50083380
Copy CRC 50083380
Accurately ripped (confidence 2) [BD87EE49] (AR v2)
Copy OK

Track 5

Filename D:\Telechargements\CDRip Lucas\Marva Wright - Born With The Blues (1996) [FLAC]\05 - Born with the blues.wav

Pre-gap length 0:00:01.49

Peak level 99.2 %
Extraction speed 5.8 X
Track quality 99.9 %
Test CRC B6DB627A
Copy CRC B6DB627A
Accurately ripped (confidence 2) [FEB0C4AC] (AR v2)
Copy OK

Track 6

Filename D:\Telechargements\CDRip Lucas\Marva Wright - Born With The Blues (1996) [FLAC]\06 - It's gonna be alright.wav

Pre-gap length 0:00:00.44

Peak level 99.2 %
Extraction speed 8.2 X
Track quality 100.0 %
Test CRC 97B9157A
Copy CRC 97B9157A
Accurately ripped (confidence 2) [7533EB31] (AR v2)
Copy OK

Track 7

Filename D:\Telechargements\CDRip Lucas\Marva Wright - Born With The Blues (1996) [FLAC]\07 - Been & gone.wav

Peak level 99.2 %
Extraction speed 7.8 X
Track quality 100.0 %
Test CRC 9AA30944
Copy CRC 9AA30944
Accurately ripped (confidence 2) [9019FF68] (AR v2)
Copy OK

Track 8

Filename D:\Telechargements\CDRip Lucas\Marva Wright - Born With The Blues (1996) [FLAC]\08 - Pray.wav

Pre-gap length 0:00:02.73

Peak level 99.2 %
Extraction speed 8.8 X
Track quality 100.0 %
Test CRC F64C4654
Copy CRC F64C4654
Accurately ripped (confidence 2) [39D07B38] (AR v2)
Copy OK

Track 9

Filename D:\Telechargements\CDRip Lucas\Marva Wright - Born With The Blues (1996) [FLAC]\09 - Houng dog.wav

Pre-gap length 0:00:02.26

Peak level 99.2 %
Extraction speed 9.3 X
Track quality 100.0 %
Test CRC EBE6584D
Copy CRC EBE6584D
Accurately ripped (confidence 2) [DFBA1300] (AR v2)
Copy OK

Track 10

Filename D:\Telechargements\CDRip Lucas\Marva Wright - Born With The Blues (1996) [FLAC]\10 - It's so nice.wav

Pre-gap length 0:00:00.50

Peak level 99.2 %
Extraction speed 7.5 X
Track quality 99.9 %
Test CRC 03AFB2B3
Copy CRC 03AFB2B3
Accurately ripped (confidence 2) [D77FDA9D] (AR v2)
Copy OK

Track 11

Filename D:\Telechargements\CDRip Lucas\Marva Wright - Born With The Blues (1996) [FLAC]\11 - He's on the fly.wav

Peak level 99.2 %
Extraction speed 6.8 X
Track quality 99.9 %
Test CRC BB10A906
Copy CRC BB10A906
Accurately ripped (confidence 2) [5F18F851] (AR v2)
Copy OK

Track 12

Filename D:\Telechargements\CDRip Lucas\Marva Wright - Born With The Blues (1996) [FLAC]\12 - Do right woman, do right man.wav

Pre-gap length 0:00:01.73

Peak level 99.2 %
Extraction speed 10.3 X
Track quality 100.0 %
Test CRC 77C4CAD2
Copy CRC 77C4CAD2
Accurately ripped (confidence 2) [038B7252] (AR v2)
Copy OK

Track 13

Filename D:\Telechargements\CDRip Lucas\Marva Wright - Born With The Blues (1996) [FLAC]\13 - Can't nobody love you.wav

Pre-gap length 0:00:03.42

Peak level 99.2 %
Extraction speed 9.4 X
Track quality 100.0 %
Test CRC 3CCB1AEB
Copy CRC 3CCB1AEB
Accurately ripped (confidence 2) [E5EDF4FF] (AR v2)
Copy OK


All tracks accurately ripped

No errors occurred

End of status report

==== Log checksum DE9C1B6C51AB3C9D3DABDBFDB5ECC9D566F63397E8C99D411F0A8ABB4A2E742A ====

[CUETools log; Date: 01.03.2022 17:36:41; Version: 2.1.4]
Pregap length 00:00:32.
[CTDB TOCID: btf0GXIpbgn732vXRtrl2m8ckyU-] found.
Track | CTDB Status
1 | (4/4) Accurately ripped
2 | (4/4) Accurately ripped
3 | (4/4) Accurately ripped
4 | (4/4) Accurately ripped
5 | (4/4) Accurately ripped
6 | (4/4) Accurately ripped
7 | (4/4) Accurately ripped
8 | (4/4) Accurately ripped
9 | (4/4) Accurately ripped
10 | (4/4) Accurately ripped
11 | (4/4) Accurately ripped
12 | (4/4) Accurately ripped
13 | (4/4) Accurately ripped
[AccurateRip ID: 001c4d1a-011d8632-b00dc90d] found.
Track [ CRC | V2 ] Status
01 [2686d800|ca212054] (0+3/3) Accurately ripped
02 [d8e7122a|ddde31cc] (0+3/3) Accurately ripped
03 [81ebd54f|54cea5c1] (0+3/3) Accurately ripped
04 [af9fbe03|bd87ee49] (0+3/3) Accurately ripped
05 [006ed03e|feb0c4ac] (0+3/3) Accurately ripped
06 [702fb927|7533eb31] (0+3/3) Accurately ripped
07 [fb061da1|9019ff68] (0+3/3) Accurately ripped
08 [f606b41f|39d07b38] (0+3/3) Accurately ripped
09 [113dbe01|dfba1300] (0+3/3) Accurately ripped
10 [09e80efd|d77fda9d] (0+3/3) Accurately ripped
11 [85cc8d93|5f18f851] (0+3/3) Accurately ripped
12 [7ed55697|038b7252] (0+3/3) Accurately ripped
13 [6e0748f4|e5edf4ff] (0+3/3) Accurately ripped

Track Peak [ CRC32 ] [W/O NULL] [ LOG ]
– 99,2 [236EC4D8] [678E66CA]
01 99,2 [04C0C0C2] [DC04DEA2] CRC32
02 99,2 [AE5FFE76] [5DD15614] CRC32
03 99,2 [DBCF6152] [AB6C3429] CRC32
04 99,2 [50083380] [BCEF8A97] CRC32
05 99,2 [B6DB627A] [9235880A] CRC32
06 99,2 [97B9157A] [E832BA9E] CRC32
07 99,2 [9AA30944] [6960AEA9] CRC32
08 99,2 [F64C4654] [CE76E5B8] CRC32
09 99,2 [EBE6584D] [96F4FB1C] CRC32
10 99,2 [03AFB2B3] [82734FF0] CRC32
11 99,2 [BB10A906] [B08EF647] CRC32
12 99,2 [77C4CAD2] [95339386] CRC32
13 99,2 [3CCB1AEB] [891D78FD] CRC32

Thanks to two_underscores