Tags
Language
Tags

Mary-Ellen Nesi, George Petrou, Armonia Atenea - Archetypon: Porpora, Hasse, Cherubini, Paisiello, Gluck, Fiore, Handel (2018)

Posted By: ArlegZ
Mary-Ellen Nesi, George Petrou, Armonia Atenea - Archetypon: Porpora, Hasse, Cherubini, Paisiello, Gluck, Fiore, Handel (2018)

Mary-Ellen Nesi, George Petrou, Armonia Atenea - Archetypon: Arias by Porpora, Hasse, Cherubini, Paisiello, Gluck, Fiorè & Handel (2018)
EAC | FLAC | Image (Cue & Log) ~ 308 Mb | Total time: 63:20 | Scans included
Classical | Label: MDG | # MDG 909 2064-6 | Recorded: 2017

Acclaimed mezzo-soprano Mary-Ellen Nesi presents thirteen arias most of them recorded here for the first time inspired by ten Greek female archetypes. George Petrou and the brilliant Armonia Atenea add fire to this exciting collection of 18th-century masterpieces. MDG listeners will be familiar with Mary-Ellen Nesi from several outstanding Handel recordings. In her most recent recital the acclaimed mezzo-soprano turns to dramatic roles from Baroque and classical operas. "In the castrato role of Oreste, Canadian-born mezzo Mary Ellen Nesi is a real find. The voice is expressive and handsome, and she has no trouble with the rapid passagework or with Handel's smoother lines that require a true legato. She is a singer to keep an eye on: even in our chock-full-of-good-mezzos time, she's worth hearing…" (Classics Today)

Performer:
Mary-Ellen Nesi, mezzo-soprano
Armonia Atenea
George Petrou, conductor

Track List:
01. Andrea Stefano Fiorè: Pirro «Un cor più misero»
02. Luigi Cherubini: Medée «Du trouble affreux»
03. Johann Adolf Hasse: Orfeo «Fasto altero vero amore»
04. George Frideric Handel: Teseo «Ombre, sortite … Sibilando»
05. Nicola Porpora: Deianira, Iole ed Ercole «Se morrai per me chi resta?»
06. Nicola Porpora: Andromeda liberata «Lo so barbari fati»
07. Giovanni Paisiello: L’Olimpiade «Caro, son tua cosi»
08. George Frideric Handel: Hercules «Cease, ruler of the day, to rise»
09. Johann Adolf Hasse: Issipile «Impallidisce in campo»
10. Christoph Willibald Gluck: Alceste «Non vi turbate, no»
11. Johann Adolf Hasse: Irene «Sì, di ferri mi cingete»
12. George Frideric Handel: Admeto «Spera, si, mio caro bene»
13. Nicola Porpora: Polifemo «Sì, che son quella, sì»


Exact Audio Copy V1.3 from 2. September 2016

EAC extraction logfile from 26. May 2019, 22:34

Mary-Ellen Nesi / Archetypon

Used drive : hp DVDRW UJ8FBA Adapter: 1 ID: 0

Read mode : Secure
Utilize accurate stream : Yes
Defeat audio cache : Yes
Make use of C2 pointers : No

Read offset correction : 6
Overread into Lead-In and Lead-Out : No
Fill up missing offset samples with silence : Yes
Delete leading and trailing silent blocks : No
Null samples used in CRC calculations : Yes
Used interface : Native Win32 interface for Win NT & 2000

Used output format : User Defined Encoder
Selected bitrate : 1024 kBit/s
Quality : High
Add ID3 tag : No
Command line compressor : C:\Program Files (x86)\Exact Audio Copy\FLAC\FLAC.EXE
Additional command line options : -6 -V -T "ARTIST=%artist%" -T "TITLE=%title%" -T "ALBUM=%albumtitle%" -T "DATE=%year%" -T "TRACKNUMBER=%tracknr%" -T "GENRE=%genre%" -T "COMMENT=%comment%" -T "BAND=%albuminterpret%" -T "ALBUMARTIST=%albuminterpret%" -T "COMPOSER=%composer%" %haslyrics%–tag-from-file=LYRICS="%lyricsfile%"%haslyrics% -T "DISCNUMBER=%cdnumber%" -T "TOTALDISCS=%totalcds%" -T "TOTALTRACKS=%numtracks%" %hascover%–picture="%coverfile%"%hascover% %source% -o %dest%

TOC of the extracted CD

Track | Start | Length | Start sector | End sector
––––––––––––––––––––––––––––-
1 | 0:00.00 | 6:24.17 | 0 | 28816
2 | 6:24.17 | 5:29.08 | 28817 | 53499
3 | 11:53.25 | 5:17.27 | 53500 | 77301
4 | 17:10.52 | 5:15.50 | 77302 | 100976
5 | 22:26.27 | 5:15.18 | 100977 | 124619
6 | 27:41.45 | 4:31.21 | 124620 | 144965
7 | 32:12.66 | 4:23.09 | 144966 | 164699
8 | 36:36.00 | 3:15.04 | 164700 | 179328
9 | 39:51.04 | 4:33.55 | 179329 | 199858
10 | 44:24.59 | 4:29.46 | 199859 | 220079
11 | 48:54.30 | 4:34.23 | 220080 | 240652
12 | 53:28.53 | 6:20.70 | 240653 | 269222
13 | 59:49.48 | 3:29.29 | 269223 | 284926

Range status and errors

Selected range

Filename C:\rips\Mary-Ellen Nesi - Archetypon.wav

Peak level 100.0 %
Extraction speed 4.9 X
Range quality 100.0 %
Test CRC 6168AE59
Copy CRC 6168AE59
Copy OK

No errors occurred

AccurateRip summary

Track 1 not present in database
Track 2 not present in database
Track 3 not present in database
Track 4 not present in database
Track 5 not present in database
Track 6 not present in database
Track 7 not present in database
Track 8 not present in database
Track 9 not present in database
Track 10 not present in database
Track 11 not present in database
Track 12 not present in database
Track 13 not present in database

None of the tracks are present in the AccurateRip database

End of status report

–– CUETools DB Plugin V2.1.6

[CTDB TOCID: JnaEvrznN0jAg9pV3fuo9fKtt.4-] found
Submit result: JnaEvrznN0jAg9pV3fuo9fKtt.4- has been confirmed
Track | CTDB Status
1 | (2/2) Accurately ripped
2 | (2/2) Accurately ripped
3 | (2/2) Accurately ripped
4 | (2/2) Accurately ripped
5 | (2/2) Accurately ripped
6 | (2/2) Accurately ripped
7 | (2/2) Accurately ripped
8 | (2/2) Accurately ripped
9 | (2/2) Accurately ripped
10 | (2/2) Accurately ripped
11 | (2/2) Accurately ripped
12 | (2/2) Accurately ripped
13 | (2/2) Accurately ripped

==== Log checksum 437C7E93504565B7F6BADF20CF42ABDFE2C2AEBB521C2E93B9190A922E55C2D6 ====

Mary-Ellen Nesi, George Petrou, Armonia Atenea - Archetypon: Porpora, Hasse, Cherubini, Paisiello, Gluck, Fiore, Handel (2018)

Thanks to the original releaser