Subcategories

Mary LaRose, Jeff Lederer, Steve Swell, Dominic Duval - Obbligato (2002)

Posted By: v3122
Mary LaRose, Jeff Lederer, Steve Swell, Dominic Duval - Obbligato (2002)

Mary LaRose, Jeff Lederer, Steve Swell, Dominic Duval - Obbligato (2002)
EAC | Flac(Image) + Cue + Log & MP3 CBR 320Kbps
CIMP #256 | ~ 247 or 166 Mb | Artwork(png) -> 5.26 Mb
Experimental, Post Bop, Modern Creative, Vocal

A great choice of tunes and an outstanding supporting cast mark this album from the outset. With performers of the caliber of Steve Swell and Dominic Duval behind her, vocalist Mary LaRose (not to be confused with the equally impressive jazz vocalist Dena de Rose) spins a tight yet expansive story, one that goes deep into the belly of the melodies, distorting them just enough to make them feel fresh. LaRose is a modernist, yet she values old-fashioned tunefulness and emotion. Trombone, sax, and acoustic bass may at first blush seem like an odd combination to back a jazz singer, but with her elastic vocal chords, the mix is nearly perfect. Swell mimics the human voice, especially when he adds a mute, and the interplay between the two is nothing less than wondrous. If there are times when the total sound is a tad sparse, it rarely lasts for long, and LaRose's acrobatic gymnastics steal the show. As with many CIMP recordings, the volume has to be turned up, but there is a pristine quality to it all. On the highly compelling "Sometimes I'm Happy," for example, the singer toys gently with the melody, followed by a pregnant bass solo, after which LaRose consciously stutters the familiar tune. Ultimately, it is her total command of her voice that wins the day, with streams of eighth notes bubbling forth and her clear, simple tone sounding a cry to the heart. Spouse Jeff Lederer adds some cogent licks throughout, especially on "Straight Up and Down," where he explodes with joy. At the turn of the 21st century, there were few original vocal jazz stylists, but Mary LaRose is the genuine article.

by Steve Loewy, allmusic
Mary LaRose, Jeff Lederer, Steve Swell, Dominic Duval - Obbligato (2002):

Mary LaRose, Jeff Lederer, Steve Swell, Dominic Duval - Obbligato (2002)

Tracklist:

1 Reincarnation Of A Lovebird
2 Same Girl
3 Sometimes I'm Happy
4 Straight Up And Down
5 What Reason Could I Give?
6 Farmer's Market
7 Hyperballad
8 I'm Beginning To See The Light
9 Snowfall
10 The Wind Cries Mary
11 The Very Thought Of You
12 Sadness (for Kim)
13 Love Cry

Mary LaRose - vocals
Jeff Lederer - reeds
Steve Swell - trombone
Dominic Duval - bass


Exact Audio Copy V1.0 beta 3 from 29. August 2011

EAC extraction logfile from 23. February 2012, 20:23

LaRose,Lederer,Swell,Duval / Obbligato

Used drive : SlimtypeDVD A DS8A5SH Adapter: 0 ID: 1

Read mode : Secure
Utilize accurate stream : Yes
Defeat audio cache : Yes
Make use of C2 pointers : No

Read offset correction : 6
Overread into Lead-In and Lead-Out : No
Fill up missing offset samples with silence : Yes
Delete leading and trailing silent blocks : No
Null samples used in CRC calculations : Yes
Used interface : Native Win32 interface for Win NT & 2000
Gap handling : Appended to previous track

Used output format : User Defined Encoder
Selected bitrate : 128 kBit/s
Quality : High
Add ID3 tag : No
Command line compressor : C:\Program Files (x86)\Exact Audio Copy\Flac\flac.exe
Additional command line options : -V -8 -T "Genre=%genre%" -T "Artist=%artist%" -T "Title=%title%" -T "Album=%albumtitle%" -T "Date=%year%" -T "Tracknumber=%tracknr%" -T "Comment=%comment%" %source%


TOC of the extracted CD

Track | Start | Length | Start sector | End sector
––––––––––––––––––––––––––––-
1 | 0:00.00 | 5:07.59 | 0 | 23083
2 | 5:07.59 | 6:47.23 | 23084 | 53631
3 | 11:55.07 | 3:24.20 | 53632 | 68951
4 | 15:19.27 | 5:21.28 | 68952 | 93054
5 | 20:40.55 | 6:25.24 | 93055 | 121953
6 | 27:06.04 | 1:56.09 | 121954 | 130662
7 | 29:02.13 | 5:46.49 | 130663 | 156661
8 | 34:48.62 | 5:47.41 | 156662 | 182727
9 | 40:36.28 | 5:38.40 | 182728 | 208117
10 | 46:14.68 | 4:18.42 | 208118 | 227509
11 | 50:33.35 | 6:48.42 | 227510 | 258151
12 | 57:22.02 | 7:39.68 | 258152 | 292644
13 | 65:01.70 | 5:09.31 | 292645 | 315850


Track 1

Filename D:\Musak 2\Steve Swell\Obbligato (2002)\01. Reincarnation of a Lovebird.wav

Pre-gap length 0:00:02.00

Peak level 49.8 %
Extraction speed 1.2 X
Track quality 100.0 %
Test CRC A31BF865
Copy CRC A31BF865
Accurately ripped (confidence 1) [27EABA14] (AR v1)
Copy OK

Track 2

Filename D:\Musak 2\Steve Swell\Obbligato (2002)\02. Same Girl.wav

Pre-gap length 0:00:02.57

Peak level 36.5 %
Extraction speed 1.4 X
Track quality 100.0 %
Test CRC A7BCB439
Copy CRC A7BCB439
Accurately ripped (confidence 1) [48A25957] (AR v1)
Copy OK

Track 3

Filename D:\Musak 2\Steve Swell\Obbligato (2002)\03. Sometimes I'm Happy.wav

Pre-gap length 0:00:02.57

Peak level 23.7 %
Extraction speed 1.4 X
Track quality 100.0 %
Test CRC 022E1723
Copy CRC 022E1723
Accurately ripped (confidence 1) [10762311] (AR v1)
Copy OK

Track 4

Filename D:\Musak 2\Steve Swell\Obbligato (2002)\04. Straight Up and Down.wav

Pre-gap length 0:00:02.57

Peak level 100.0 %
Extraction speed 1.5 X
Track quality 99.9 %
Test CRC 6714B7B4
Copy CRC 6714B7B4
Accurately ripped (confidence 1) [D10864F5] (AR v1)
Copy OK

Track 5

Filename D:\Musak 2\Steve Swell\Obbligato (2002)\05. What Reason Could I Give.wav

Pre-gap length 0:00:02.57

Peak level 46.4 %
Extraction speed 1.8 X
Track quality 100.0 %
Test CRC 8BD9EA32
Copy CRC 8BD9EA32
Accurately ripped (confidence 1) [78759C88] (AR v1)
Copy OK

Track 6

Filename D:\Musak 2\Steve Swell\Obbligato (2002)\06. Farmer's Market.wav

Pre-gap length 0:00:02.57

Peak level 40.0 %
Extraction speed 1.5 X
Track quality 100.0 %
Test CRC C43E24DA
Copy CRC C43E24DA
Accurately ripped (confidence 1) [12666017] (AR v1)
Copy OK

Track 7

Filename D:\Musak 2\Steve Swell\Obbligato (2002)\07. Hyperballad.wav

Pre-gap length 0:00:02.57

Peak level 79.8 %
Extraction speed 1.9 X
Track quality 100.0 %
Test CRC 311F9824
Copy CRC 311F9824
Accurately ripped (confidence 1) [C20F1452] (AR v1)
Copy OK

Track 8

Filename D:\Musak 2\Steve Swell\Obbligato (2002)\08. I'm Beginning to See the Light.wav

Pre-gap length 0:00:02.57

Peak level 100.0 %
Extraction speed 2.0 X
Track quality 100.0 %
Test CRC 05820201
Copy CRC 05820201
Accurately ripped (confidence 1) [6F7C0B5E] (AR v1)
Copy OK

Track 9

Filename D:\Musak 2\Steve Swell\Obbligato (2002)\09. Snowfall.wav

Pre-gap length 0:00:02.57

Peak level 44.0 %
Extraction speed 2.1 X
Track quality 100.0 %
Test CRC 4E59CFA6
Copy CRC 4E59CFA6
Accurately ripped (confidence 1) [35F38FA6] (AR v1)
Copy OK

Track 10

Filename D:\Musak 2\Steve Swell\Obbligato (2002)\10. The Wind Cries Mary.wav

Pre-gap length 0:00:02.57

Peak level 100.0 %
Extraction speed 2.2 X
Track quality 100.0 %
Test CRC D26A1260
Copy CRC D26A1260
Accurately ripped (confidence 1) [8C0EE15A] (AR v1)
Copy OK

Track 11

Filename D:\Musak 2\Steve Swell\Obbligato (2002)\11. The Very Thought of You.wav

Pre-gap length 0:00:02.57

Peak level 24.7 %
Extraction speed 2.4 X
Track quality 100.0 %
Test CRC 2D6E2D84
Copy CRC 2D6E2D84
Accurately ripped (confidence 1) [DAC9B4CD] (AR v1)
Copy OK

Track 12

Filename D:\Musak 2\Steve Swell\Obbligato (2002)\12. Sadness (for Kim).wav

Pre-gap length 0:00:02.57

Peak level 77.3 %
Extraction speed 2.5 X
Track quality 100.0 %
Test CRC 0EC0D8DD
Copy CRC 0EC0D8DD
Accurately ripped (confidence 1) [CD6C6B6C] (AR v1)
Copy OK

Track 13

Filename D:\Musak 2\Steve Swell\Obbligato (2002)\13. Love Cry.wav

Pre-gap length 0:00:02.57

Peak level 100.0 %
Extraction speed 2.2 X
Track quality 99.9 %
Test CRC D0E04166
Copy CRC D0E04166
Accurately ripped (confidence 1) [43F1754B] (AR v1)
Copy OK


All tracks accurately ripped

No errors occurred

End of status report

==== Log checksum C5C6191AAFC38BB9BDE6D3A5975A295877999837C3D826F422754B573F7411B5 ====


[CUETools log; Date: 19.02.2020 8:00:08; Version: 2.1.4]
[AccurateRip ID: 00208c0e-01468ad2-ae10730d] found.
Track [ CRC | V2 ] Status
01 [27eaba14|1b0c344b] (1+1/2) Accurately ripped
02 [48a25957|e4a12074] (1+1/2) Accurately ripped
03 [10762311|5afd43e8] (1+1/2) Accurately ripped
04 [d10864f5|13c94679] (1+1/2) Accurately ripped
05 [78759c88|6ae07db0] (1+1/2) Accurately ripped
06 [12666017|7a4667ab] (1+1/2) Accurately ripped
07 [c20f1452|018c26db] (1+1/2) Accurately ripped
08 [6f7c0b5e|e47319dc] (1+1/2) Accurately ripped
09 [35f38fa6|0fb50bc4] (1+1/2) Accurately ripped
10 [8c0ee15a|2728e66c] (1+1/2) Accurately ripped
11 [dac9b4cd|54b9992f] (1+1/2) Accurately ripped
12 [cd6c6b6c|845bab1d] (1+1/2) Accurately ripped
13 [43f1754b|70e0d4c6] (1+1/2) Accurately ripped

Track Peak [ CRC32 ] [W/O NULL] [ LOG ]
– 100,0 [E59CA5C8] [6892A8A1]
01 49,8 [A31BF865] [CBCA4B87] CRC32
02 36,5 [A7BCB439] [E88EB115] CRC32
03 23,7 [022E1723] [7F863A53] CRC32
04 100,0 [6714B7B4] [9E2FE58B] CRC32
05 46,4 [8BD9EA32] [93CD46E0] CRC32
06 40,0 [C43E24DA] [3B624B56] CRC32
07 79,8 [311F9824] [E9522926] CRC32
08 100,0 [05820201] [F682BBD5] CRC32
09 44,0 [4E59CFA6] [F2939456] CRC32
10 100,0 [D26A1260] [46BD7FD7] CRC32
11 24,7 [2D6E2D84] [C20E854C] CRC32
12 77,3 [0EC0D8DD] [7D4C4A95] CRC32
13 100,0 [D0E04166] [3F2A662E] CRC32


Mary LaRose, Jeff Lederer, Steve Swell, Dominic Duval - Obbligato (2002)

All thanks go to desordenado

Dominic Duval in my Blog

Download Mary LaRose, Jeff Lederer, Steve Swell, Dominic Duval - Obbligato (2002):