Subcategories
Tags
Language
Tags

Mary Springfels, The Newberry Consort - A Candle in the Dark: Elizabethan Songs & Consort Music (2000)

Posted By: ArlegZ
Mary Springfels, The Newberry Consort - A Candle in the Dark: Elizabethan Songs & Consort Music (2000)

Mary Springfels, The Newberry Consort - A Candle in the Dark: Elizabethan Songs & Consort Music (2000)
EAC | FLAC | Image (Cue & Log) ~ 302 Mb | Total time: 65:43 | Scans included
Classical | Label: Harmonia Mundi | # HMU 907140 | Recorded: 1998

The Newberry Consort is one of Chicago's leading early music organizations, building its reputation from its home at the Newberry Library. It records for the Harmonia Mundi label and regularly participates in Harmonia, a nationally syndicated radio program. Among its recording projects is a three-disc project in memory of Brown and drawing on his library materials now in the Library. The second of that series, A Candle in the Dark, was released internationally in autumn, 2000.

Performer:
Ellen Hargis, soprano
Drew Minter, countertenor
The Newberry Consort
Mary Springfels, director

Track List:
William Byrd
01. Prelude and ground à 5
John Dowland
02. In darknesse let mee dwell
William Mundy
03. In Nomine
John Dowland
04. Sorrow, stay!
Anonymous
05. The Devil's dream
06. Dr. Faustus
Picforth
07. In Nomine
Christopher Tye
08. In Nomine XIII, "Trust"
Thomas Campion
09. Thrice tosse these oaken ashes
John Johnson
10. Johnson's grounde
11. Passamezzo Pavan
William Byrd
12. Come, woeful Orpheus
13. An aged dame
Christopher Tye
14. Sit Fast
Alfonso Ferrabosco II
15. So beautie on the waters stood
Robert White
16. Fantasia II
John Dowland
17. His golden locks time hath to silver turnde
Thomas Campion
18. Move now with measur'd sound


Exact Audio Copy V1.3 from 2. September 2016

EAC extraction logfile from 27. November 2018, 8:03

The Newberry Consort / A Candle in the Dark

Used drive : HL-DT-STDVDRAM GP65NW60 Adapter: 1 ID: 0

Read mode : Secure
Utilize accurate stream : Yes
Defeat audio cache : Yes
Make use of C2 pointers : No

Read offset correction : 6
Overread into Lead-In and Lead-Out : No
Fill up missing offset samples with silence : Yes
Delete leading and trailing silent blocks : No
Null samples used in CRC calculations : Yes
Used interface : Native Win32 interface for Win NT & 2000

Used output format : User Defined Encoder
Selected bitrate : 1024 kBit/s
Quality : High
Add ID3 tag : No
Command line compressor : C:\Program Files (x86)\Exact Audio Copy\FLAC\FLAC.EXE
Additional command line options : -6 -V -T "ARTIST=%artist%" -T "TITLE=%title%" -T "ALBUM=%albumtitle%" -T "DATE=%year%" -T "TRACKNUMBER=%tracknr%" -T "GENRE=%genre%" -T "COMMENT=%comment%" -T "BAND=%albuminterpret%" -T "ALBUMARTIST=%albuminterpret%" -T "COMPOSER=%composer%" %haslyrics%–tag-from-file=LYRICS="%lyricsfile%"%haslyrics% -T "DISCNUMBER=%cdnumber%" -T "TOTALDISCS=%totalcds%" -T "TOTALTRACKS=%numtracks%" %hascover%–picture="%coverfile%"%hascover% %source% -o %dest%


TOC of the extracted CD

Track | Start | Length | Start sector | End sector
––––––––––––––––––––––––––––-
1 | 0:00.00 | 5:14.12 | 0 | 23561
2 | 5:14.12 | 4:01.50 | 23562 | 41686
3 | 9:15.62 | 3:10.38 | 41687 | 55974
4 | 12:26.25 | 3:06.65 | 55975 | 69989
5 | 15:33.15 | 3:39.30 | 69990 | 86444
6 | 19:12.45 | 10:03.42 | 86445 | 131711
7 | 29:16.12 | 3:10.13 | 131712 | 145974
8 | 32:26.25 | 1:33.50 | 145975 | 152999
9 | 34:00.00 | 2:31.25 | 153000 | 164349
10 | 36:31.25 | 1:46.25 | 164350 | 172324
11 | 38:17.50 | 2:35.00 | 172325 | 183949
12 | 40:52.50 | 3:30.07 | 183950 | 199706
13 | 44:22.57 | 2:45.20 | 199707 | 212101
14 | 47:08.02 | 5:44.33 | 212102 | 237934
15 | 52:52.35 | 1:48.65 | 237935 | 246099
16 | 54:41.25 | 3:29.17 | 246100 | 261791
17 | 58:10.42 | 3:55.33 | 261792 | 279449
18 | 62:06.00 | 3:37.42 | 279450 | 295766


Range status and errors

Selected range

Filename C:\Users\Grant\Desktop\The Newberry Consort - A Candle in the Dark.wav

Peak level 94.2 %
Extraction speed 2.2 X
Range quality 100.0 %
Test CRC 93AB92E1
Copy CRC 93AB92E1
Copy OK

No errors occurred


AccurateRip summary

Track 1 accurately ripped (confidence 4) [12D58E93] (AR v2)
Track 2 accurately ripped (confidence 4) [58A68FA1] (AR v2)
Track 3 accurately ripped (confidence 4) [99501748] (AR v2)
Track 4 accurately ripped (confidence 4) [971BD87E] (AR v2)
Track 5 accurately ripped (confidence 4) [FA79FB05] (AR v2)
Track 6 accurately ripped (confidence 4) [C4B5C5DF] (AR v2)
Track 7 accurately ripped (confidence 4) [A6ADDB75] (AR v2)
Track 8 accurately ripped (confidence 4) [13EB5A43] (AR v2)
Track 9 accurately ripped (confidence 4) [61E70775] (AR v2)
Track 10 accurately ripped (confidence 4) [649E1ADA] (AR v2)
Track 11 accurately ripped (confidence 4) [BC43D304] (AR v2)
Track 12 accurately ripped (confidence 4) [C18FC1EC] (AR v2)
Track 13 accurately ripped (confidence 4) [73167E67] (AR v2)
Track 14 accurately ripped (confidence 4) [493F8D0E] (AR v2)
Track 15 accurately ripped (confidence 4) [A2A85915] (AR v2)
Track 16 accurately ripped (confidence 4) [DA00A6FA] (AR v2)
Track 17 accurately ripped (confidence 4) [194B0C4A] (AR v2)
Track 18 accurately ripped (confidence 4) [BE860360] (AR v2)

All tracks accurately ripped

End of status report

–– CUETools DB Plugin V2.1.6

[CTDB TOCID: HnUmL5VJeDhQALTBeSAEQEG7H_M-] found
Submit result: HnUmL5VJeDhQALTBeSAEQEG7H_M- has been confirmed
Track | CTDB Status
1 | (6/6) Accurately ripped
2 | (6/6) Accurately ripped
3 | (6/6) Accurately ripped
4 | (6/6) Accurately ripped
5 | (6/6) Accurately ripped
6 | (6/6) Accurately ripped
7 | (6/6) Accurately ripped
8 | (6/6) Accurately ripped
9 | (6/6) Accurately ripped
10 | (6/6) Accurately ripped
11 | (6/6) Accurately ripped
12 | (6/6) Accurately ripped
13 | (6/6) Accurately ripped
14 | (6/6) Accurately ripped
15 | (6/6) Accurately ripped
16 | (6/6) Accurately ripped
17 | (6/6) Accurately ripped
18 | (6/6) Accurately ripped


==== Log checksum E51E2A639AAAAA6858B823CC2FF40D4F9F064A85FCC84D076DF3FB8C4A251179 ====

Mary Springfels, The Newberry Consort - A Candle in the Dark: Elizabethan Songs & Consort Music (2000)

Thanks to the original releaser