Subcategories

Masaaki Suzuki - Johann Sebastian Bach: Organ Works, Vol. 2 (2016)

Posted By: Designol
Masaaki Suzuki - Johann Sebastian Bach: Organ Works, Vol. 2 (2016)

Masaaki Suzuki - Johann Sebastian Bach: Organ Works, Vol. 2 (2016)
EAC | FLAC | Image (Cue&Log) ~ 312 Mb | Mp3 (CBR320) ~ 169 Mb | Artwork included
Genre: Classical | Label: BIS | # BIS-SACD-2241 | Time: 01:10:47

Masaaki Suzuki was an organist before he was a conductor, and his recordings of Bach's organ works have made a delightful coda to his magisterial survey of Bach cantatas with his Bach Collegium Japan. This selection, the second in a series appearing on the BIS label, gives a good idea of the gems available. You get a good mix of pieces, including a pair of Bach's Vivaldi transcriptions. Fans of Suzuki's cantata series will be pleased to note the similarities in his style between his conducting and his organ playing: there's a certain precise yet deliberate and lush quality common to both. And he has a real co-star here: the organ of the Kobe Shoin Women's University Chapel, built in 1983 by French maker Marc Garnier. The realizations of Bach's transcriptions of Vivaldi concertos fare especially well here, with a panoply of subtle colors in the organ. Sample the first movement of the Concerto in D minor, BWV 596, with its mellow yet transcendently mysterious tones in the string ripieni. BIS backs Suzuki up with marvelously clear engineering in the small Japanese chapel, and all in all, this is a Bach organ recording that stands out from the crowd. Highly recommended.

Review by James Manheim, Allmusic.com

Masaaki Suzuki - Johann Sebastian Bach: Organ Works, Vol. 2 (2016)



Masaaki Suzuki - Johann Sebastian Bach: Organ Works, Vol. 2 (2016)



Tracklist:

Prelude and Fugue in G major, BWV 541
01. Prelude (2:54)
02. Fugue (4:27)

03. Chorale prelude ‘Liebster Jesu, wir sind hier’, BWV 730 (2:18)

Concerto in D minor, BWV 596
04. I. - II. Grave - III. Fugue (4:39)
05. IV. Largo e spiccato (2:59)
06. V. (3:08)

Chorale partita on 'Sei gegrüßet, Jesu gütig', BWV 768
07. Chorale (1:19)
08. Var. I (2:46)
09. Var. II (1:11)
10. Var. III (0:37)
11. Var. IV (0:42)
12. Var. V (1:06)
13. Var. VI (1:45)
14. Var. VII (1:20)
15. Var. VIII (1:04)
16. Var. IX (1:09)
17. Var. X (4:22)
18. Var. XI (1:50)

Concerto in C major, BWV 594
19. I. (6:27)
20. II. Recitativo (2:56)
21. III. Allegro (8:25)

22. Chorale prelude 'Liebster Jesu, wir sind hier', BWV 731 (2:44)

Prelude and Fugue in C major, BWV 547
23. Prelude (5:10)
24. Fugue (5:30)


Exact Audio Copy V1.1 from 23. June 2015

EAC extraction logfile from 27. April 2017, 1:54

Masaaki Suzuki / Bach - Organ Works, Vol.2

Used drive : TSSTcorpCD/DVDW SH-S182M Adapter: 1 ID: 1

Read mode : Secure
Utilize accurate stream : Yes
Defeat audio cache : Yes
Make use of C2 pointers : No

Read offset correction : 6
Overread into Lead-In and Lead-Out : No
Fill up missing offset samples with silence : Yes
Delete leading and trailing silent blocks : No
Null samples used in CRC calculations : Yes
Used interface : Native Win32 interface for Win NT & 2000

Used output format : User Defined Encoder
Selected bitrate : 128 kBit/s
Quality : High
Add ID3 tag : No
Command line compressor : C:\Program Files (x86)\Exact Audio Copy\Flac\flac.exe
Additional command line options : -V -8 -T "Date=%year%" -T "Genre=%genre%" %source%


TOC of the extracted CD

Track | Start | Length | Start sector | End sector
––––––––––––––––––––––––––––-
1 | 0:00.00 | 2:54.11 | 0 | 13060
2 | 2:54.11 | 4:26.40 | 13061 | 33050
3 | 7:20.51 | 2:18.06 | 33051 | 43406
4 | 9:38.57 | 4:39.32 | 43407 | 64363
5 | 14:18.14 | 2:59.06 | 64364 | 77794
6 | 17:17.20 | 3:07.49 | 77795 | 91868
7 | 20:24.69 | 1:19.03 | 91869 | 97796
8 | 21:43.72 | 2:46.15 | 97797 | 110261
9 | 24:30.12 | 1:10.59 | 110262 | 115570
10 | 25:40.71 | 0:37.24 | 115571 | 118369
11 | 26:18.20 | 0:42.24 | 118370 | 121543
12 | 27:00.44 | 1:06.30 | 121544 | 126523
13 | 28:06.74 | 1:44.58 | 126524 | 134381
14 | 29:51.57 | 1:19.38 | 134382 | 140344
15 | 31:11.20 | 1:03.50 | 140345 | 145119
16 | 32:14.70 | 1:08.60 | 145120 | 150279
17 | 33:23.55 | 4:21.50 | 150280 | 169904
18 | 37:45.30 | 1:49.62 | 169905 | 178141
19 | 39:35.17 | 6:27.18 | 178142 | 207184
20 | 46:02.35 | 2:56.01 | 207185 | 220385
21 | 48:58.36 | 8:25.18 | 220386 | 258278
22 | 57:23.54 | 2:43.38 | 258279 | 270541
23 | 60:07.17 | 5:10.07 | 270542 | 293798
24 | 65:17.24 | 5:29.52 | 293799 | 318525


Range status and errors

Selected range

Filename C:\temp\BIS-SACD-2241 - Bach - Organ Works, Vol.2 - Masaaki Suzuki\Bach - Organ Works, Vol.2.wav

Peak level 85.8 %
Extraction speed 8.0 X
Range quality 100.0 %
Test CRC 5C90D222
Copy CRC 5C90D222
Copy OK

No errors occurred


AccurateRip summary

Track 1 accurately ripped (confidence 1) [93821410] (AR v2)
Track 2 accurately ripped (confidence 1) [DCE26D3A] (AR v2)
Track 3 accurately ripped (confidence 1) [21D7C50F] (AR v2)
Track 4 accurately ripped (confidence 1) [ED616A84] (AR v2)
Track 5 accurately ripped (confidence 1) [95DA2FBF] (AR v2)
Track 6 accurately ripped (confidence 1) [A667D6B9] (AR v2)
Track 7 accurately ripped (confidence 1) [2A678ADA] (AR v2)
Track 8 accurately ripped (confidence 1) [CA23D70C] (AR v2)
Track 9 accurately ripped (confidence 1) [A660180F] (AR v2)
Track 10 accurately ripped (confidence 1) [E4BCAB84] (AR v2)
Track 11 accurately ripped (confidence 1) [828E9334] (AR v2)
Track 12 accurately ripped (confidence 1) [99C48DC5] (AR v2)
Track 13 accurately ripped (confidence 1) [0431DBCC] (AR v2)
Track 14 accurately ripped (confidence 1) [EC3EA89D] (AR v2)
Track 15 accurately ripped (confidence 1) [1ACDDE22] (AR v2)
Track 16 accurately ripped (confidence 1) [51E7EADF] (AR v2)
Track 17 accurately ripped (confidence 1) [8CDC1A0B] (AR v2)
Track 18 accurately ripped (confidence 1) [468F956B] (AR v2)
Track 19 accurately ripped (confidence 1) [E68127E1] (AR v2)
Track 20 accurately ripped (confidence 1) [65D3929F] (AR v2)
Track 21 accurately ripped (confidence 1) [230A58AD] (AR v2)
Track 22 accurately ripped (confidence 1) [B7E02C0F] (AR v2)
Track 23 accurately ripped (confidence 1) [CC38E193] (AR v2)
Track 24 accurately ripped (confidence 1) [B4EF097F] (AR v2)

All tracks accurately ripped

End of status report

==== Log checksum BDAC5BDCCD74D1D5EB89F82EBAA3111E470EF58278AE3586AAA1342D85C36955 ====

foobar2000 1.2 / Dynamic Range Meter 1.1.1
log date: 2018-02-10 03:11:10

––––––––––––––––––––––––––––––––––––––––
Analyzed: Masaaki Suzuki / Bach - Organ Works, Vol.2
––––––––––––––––––––––––––––––––––––––––

DR Peak RMS Duration Track
––––––––––––––––––––––––––––––––––––––––
DR12 -3.19 dB -17.28 dB 2:54 01-Prelude and Fugue in G major, BWV 541 - Prelude
DR11 -2.08 dB -16.30 dB 4:27 02-Prelude and Fugue in G major, BWV 541 - Fugue
DR8 -10.64 dB -21.66 dB 2:18 03-Chorale prelude ‘Liebster Jesu, wir sind hier’, BWV 730
DR12 -4.19 dB -21.00 dB 4:39 04-Concerto in D minor, BWV 596 - I. - II. Grave - III. Fugue
DR9 -11.15 dB -25.50 dB 2:59 05-Concerto in D minor, BWV 596 - IV. Largo e spiccato
DR11 -5.38 dB -20.94 dB 3:08 06-Concerto in D minor, BWV 596 - V.
DR9 -4.54 dB -16.45 dB 1:19 07-Chorale partita on 'Sei gegrüßet, Jesu gütig', BWV 768 - Chorale
DR10 -14.61 dB -26.85 dB 2:46 08-Chorale partita on 'Sei gegrüßet, Jesu gütig', BWV 768 - Var. I
DR11 -12.52 dB -26.06 dB 1:11 09-Chorale partita on 'Sei gegrüßet, Jesu gütig', BWV 768 - Var. II
DR10 -15.82 dB -27.92 dB 0:37 10-Chorale partita on 'Sei gegrüßet, Jesu gütig', BWV 768 - Var. III
DR9 -17.86 dB -28.94 dB 0:42 11-Chorale partita on 'Sei gegrüßet, Jesu gütig', BWV 768 - Var. IV
DR10 -11.43 dB -23.48 dB 1:06 12-Chorale partita on 'Sei gegrüßet, Jesu gütig', BWV 768 - Var. V
DR8 -11.97 dB -23.01 dB 1:45 13-Chorale partita on 'Sei gegrüßet, Jesu gütig', BWV 768 - Var. VI
DR10 -14.38 dB -26.18 dB 1:20 14-Chorale partita on 'Sei gegrüßet, Jesu gütig', BWV 768 - Var. VII
DR10 -9.83 dB -23.20 dB 1:04 15-Chorale partita on 'Sei gegrüßet, Jesu gütig', BWV 768 - Var. VIII
DR9 -10.48 dB -21.98 dB 1:09 16-Chorale partita on 'Sei gegrüßet, Jesu gütig', BWV 768 - Var. IX
DR10 -6.53 dB -19.76 dB 4:22 17-Chorale partita on 'Sei gegrüßet, Jesu gütig', BWV 768 - Var. X
DR10 -1.32 dB -13.50 dB 1:50 18-Chorale partita on 'Sei gegrüßet, Jesu gütig', BWV 768 - Var. XI
DR13 -6.73 dB -23.02 dB 6:27 19-Concerto in C major, BWV 594 - I.
DR10 -11.07 dB -24.32 dB 2:56 20-Concerto in C major, BWV 594 - II. Recitativo
DR13 -3.72 dB -24.54 dB 8:25 21-Concerto in C major, BWV 594 - III. Allegro
DR8 -10.22 dB -21.79 dB 2:44 22-Chorale prelude 'Liebster Jesu, wir sind hier', BWV 731
DR11 -3.76 dB -16.75 dB 5:10 23-Prelude and Fugue in C major, BWV 547 - Prelude
DR11 -6.47 dB -21.64 dB 5:30 24-Prelude and Fugue in C major, BWV 547 - Fugue
––––––––––––––––––––––––––––––––––––––––

Number of tracks: 24
Official DR value: DR10

Samplerate: 44100 Hz
Channels: 2
Bits per sample: 16
Bitrate: 603 kbps
Codec: FLAC
================================================================================

Masaaki Suzuki - Johann Sebastian Bach: Organ Works, Vol. 2 (2016)