Tags
Language
Tags

Masaaki Suzuki, Bach Collegium Japan - Johann Sebastian Bach: Matthäus-Passion (2019)

Posted By:
Masaaki Suzuki, Bach Collegium Japan - Johann Sebastian Bach: Matthäus-Passion (2019)

Masaaki Suzuki, Bach Collegium Japan - Johann Sebastian Bach: Matthäus-Passion (2019)
EAC | FLAC | Image (Cue & Log) ~ 754 Mb | Total time: 163:14 | Scans included
Classical | Label: BIS | BIS-SACD-2500 | Recorded: 2019

Masaaki Suzuki and his Bach Collegium Japan made their first recording of the St Matthew Passion in March 1999. Twenty years later, in April 2019, it was time once again, as the singers and players gathered in the Concert Hall of the Saitama Arts Theater in Japan. ‘A profound joy’ is how Masaaki Suzuki describes his emotion at the opportunity to record Bach’s great fresco of Christ’s Passion for a second time. And this time, he and his ensemble have brought with them into the concert hall a profound and collective familiarity with Bach’s choral music, after having recorded more or less all of it in the meantime, including the complete sacred cantatas. For his Evangelist, Suzuki has selected the young German tenor Benjamin Bruns, making his first appearance on BIS. Among the other soloists are familiar names including Carolyn Sampson, Damien Guillon, Makoto Sakurada and Christian Immler.

Performer:
Benjamin Bruns, Evangelist
Carolyn Sampson, soprano I
Aki Matsui, soprano II
Damien Guillon, alto I
Clint van der Linde, alto II
Makoto Sakurada, tenor I
Zachary Wilder, tenor II
Christian Immler, bass I — Jesus
Toru Kaku, bass II — Judas, Pilate, High Priest, Chief Priest
Bach Collegium Japan
Masaaki Suzuki, conductor

Track List:
CD1:
St Matthew Passion, BWV 244 - Part One
01. 1. Aria-Chorus and Chorale: Kommt, ihr Töchter, helft mir klagen
Part One - Anointing in Bethany
02. 2. Recitative: Da Jesus diese Rede vollendet hatte
03. 3. Chorale: Herzliebster Jesu, was hast du verbrochen
04. 4. Recitative: Da versammleten sich die Hohenpriester; Chorus: Ja nicht auf das Fest; Recitative: Da nun Jesus war zu Bethanien; Chorus: Wozu dienet dieser Unrat; Recitative: Da das Jesus merkete
05. 5. Recitative: Du lieber Heiland du
06. 6. Aria: Buß und Reu
Part One - Judas's Betrayal
07. 7. Recitative: Da ging hin der Zwölfen einer
08. 8. Aria: Blute nur, du liebes Herz
Part One - The Last Supper
09. 9. Recitative: Aber am ersten Tage der süßen Brot; Chorus: Wo willst du, dass wir dir bereiten; Recitative: Er sprach: Gehet hin in die Stadt; Recitative: Und sie wurden sehr betrübt; Chorus: Herr, bin ich’s?
10. 10. Chorale: Ich bin’s, ich sollte büßen
11. 11. Recitative: Er antwortete und sprach: Der mit der Hand
12. 12. Recitative: Wiewohl mein Herz in Tränen schwimmt
13. 13. Aria: Ich will dir mein Herze schenken
Part One - Jesus´s Despair on the Mount of Olives
14. 14. Recitative: Und da sie den Lobgesang gesprochen hatten
15. 15. Chorale: Erkenne mich, mein Hüter
16. 16. Recitative: Petrus aber antwortete und sprach zu ihm
17. 17. Chorale: Ich will hier bei dir stehen
18. 18. Recitative: Da kam Jesus mit ihnen zu einem Hofe
19. 19. Recitative and Chorale: O Schmerz!
20. 20. Aria and Chorus: Ich will bei meinem Jesu wachen
Part One - Prayer on the Mount of Olives
21. 21. Recitative: Und ging hin ein wenig
22. 22. Recitative: Der Heiland fällt vor seinem Vater nieder
23. 23. Aria: Gerne will ich mich bequemen
24. 24. Recitative: Und er kam zu seinen Jüngern
25. 25. Chorale: Was mein Gott will, das g’scheh allzeit
26. 26. Recitative: Und er kam und fand sie aber schlafend
Part One - Arrest of Jesus
27. 27. Aria and Chorus: So ist mein Jesus nun gefangen; Chorus: Sind Blitze, sind Donner in Wolken verschwunden?
28. 28. Recitative: Und siehe, einer aus denen, die mit Jesu waren
29. 29. Chorale: O Mensch, bewein dein Sünde groß
Part Two
30. 30. Aria and Chorus: Ach! nun ist mein Jesus hin!
Part Two - Interrogation by the Chief Priests
31. 31. Recitative: Die aber Jesum gegriffen hatten
32. 32. Chorale: Mir hat die Welt trüglich gericht’
33. 33. Recitative: Und wiewohl viel falsche Zeugen
34. 34. Recitative: Mein Jesus schweigt
35. 35. Aria: Geduld! Wenn mich falsche Zungen stechen
CD2:
01. 36. Recitative: Und der Hohepriester antwortete; Chorus: Er ist des Todes schuldig!; Recitative: Da speieten sie aus in sein Angesicht; Chorus: Weissage uns, Christe
02. 37. Chorale: Wer hat dich so geschlagen
Part Two - Peter's Denial
03. 38. Recitative: Petrus aber saß draußen im Palast; Chorus: Wahrlich, du bist auch einer von denen; Recitative: Da hub er an, sich zu verfluchen
04. 39. Aria: Erbarme dich
05. 40. Chorale: Bin ich gleich von dir gewichen
Part Two - Judas in the Temple
06. 41. Recitative: Des Morgens aber hielten alle Hohepriester; Chorus: Was gehet uns das an?; Recitative: Und er warf die Silberlinge in den Tempel
07. 42. Aria: Gebt mir meinen Jesum wieder!
Part Two - Jesus before Pilate
08. 43. Recitative: Sie hielten aber einen Rat
09. 44. Chorale: Befiehl du deine Wege
10. 45. Recitative: Auf das Fest aber; Chorus: Lass ihn kreuzigen!
11. 46. Chorale: Wie wunderbarlich ist doch diese Strafe!
12. 47. Recitative: Der Landpfleger sagte: Was hat er denn Übels getan?
13. 48. Recitative: Er hat uns allen wohlgetan
14. 49. Aria: Aus Liebe will mein Heiland sterben
15. 50. Recitative: Sie schrieen aber noch mehr; Chorus: Lass ihn kreuzigen!; Recitative: Da aber Pilatus sahe; Chorus: Sein Blut
Part Two - Scourging of Jesus
16. 51. Recitative: Erbarm es Gott!
17. 52. Aria: Können Tränen meiner Wangen
18. 53. Recitative: Da nahmen die Kriegsknechte des Landpflegers Jesum; Chorus: Gegrüßet seist du, Jüdenkönig!; Recitative: Und speieten ihn an
19. 54. Chorale: O Haupt voll Blut und Wunden
Part Two - Simon of Cyrene
20. 55. Recitative: Und da sie ihn verspottet hatten
21. 56. Recitative: Ja freilich will in uns das Fleisch und Blut
22. 57. Aria: Komm, süßes Kreuz, so will ich sagen
Part Two - The Crucifixion
23. 58. Recitative: Und da sie an die Stätte kamen; Chorus: Der du den Tempel Gottes zerbrichst; Recitative: Desgleichen auch die Hohenpriester; Chorus: Andern hat er geholfen; Recitative: Desgleichen schmäheten ihn
24. 59. Recitative: Ach Golgatha, unselges Golgatha!
25. 60. Aria and Chorus: Sehet, Jesus hat die Hand
26. 61. Recitative: Und von der sechsten Stunde an; Chorus: Der rufet dem Elias!; Recitative: Und bald lief einer unter ihnen; Chorus: Halt! lass sehen, ob Elias komme und ihm helfe?; Recitative: Aber Jesus schriee abermal laut
27. 62. Chorale: Wenn ich einmal soll scheiden
28. 63. Recitative: Und siehe da, der Vorhang im Tempel; Chorus: Wahrlich, dieser ist Gottes Sohn gewesen; Recitative: Und es waren viel Weiber da
Part Two - Descent from the Cross
29. 64. Recitative: Am Abend, da es kühle war
30. 65. Aria: Mache dich, mein Herze, rein
Part Two - Burial
31. 66. Recitative: Und Joseph nahm den Leib; Chorus: Herr, wir haben gedacht; Recitative: Pilatus sprach zu ihnen
32. 67. Recitative and Chorus: Nun ist der Herr zu Ruh gebracht
33. 68. Aria-Chorus: Wir setzen uns mit Tränen nieder


Exact Audio Copy V1.5 from 20. February 2020

EAC extraction logfile from 2. March 2021, 22:44

Bach Collegium Japan, Masaaki Suzuki / Bach - Matthäus-Passion - CD1

Used drive : ASUS SDRW-08U7M-U Adapter: 1 ID: 0

Read mode : Secure
Utilize accurate stream : Yes
Defeat audio cache : Yes
Make use of C2 pointers : No

Read offset correction : 6
Overread into Lead-In and Lead-Out : No
Fill up missing offset samples with silence : Yes
Delete leading and trailing silent blocks : No
Null samples used in CRC calculations : Yes
Used interface : Native Win32 interface for Win NT & 2000

Used output format : User Defined Encoder
Selected bitrate : 128 kBit/s
Quality : High
Add ID3 tag : No
Command line compressor : C:\Program Files (x86)\Exact Audio Copy\Flac\flac.exe
Additional command line options : -V -8 -T "Date=%year%" -T "Genre=%genre%" %source%


TOC of the extracted CD

Track | Start | Length | Start sector | End sector
––––––––––––––––––––––––––––-
1 | 0:00.00 | 8:20.14 | 0 | 37513
2 | 8:20.14 | 0:40.08 | 37514 | 40521
3 | 9:00.22 | 0:39.36 | 40522 | 43482
4 | 9:39.58 | 2:56.30 | 43483 | 56712
5 | 12:36.13 | 0:55.52 | 56713 | 60889
6 | 13:31.65 | 3:56.36 | 60890 | 78625
7 | 17:28.26 | 0:40.02 | 78626 | 81627
8 | 18:08.28 | 4:47.59 | 81628 | 103211
9 | 22:56.12 | 2:13.44 | 103212 | 113230
10 | 25:09.56 | 0:41.41 | 113231 | 116346
11 | 25:51.22 | 2:52.37 | 116347 | 129283
12 | 28:43.59 | 1:17.35 | 129284 | 135093
13 | 30:01.19 | 3:17.74 | 135094 | 149942
14 | 33:19.18 | 0:59.57 | 149943 | 154424
15 | 34:19.00 | 0:56.61 | 154425 | 158685
16 | 35:15.61 | 0:59.23 | 158686 | 163133
17 | 36:15.09 | 0:53.07 | 163134 | 167115
18 | 37:08.16 | 1:51.21 | 167116 | 175461
19 | 38:59.37 | 1:40.69 | 175462 | 183030
20 | 40:40.31 | 4:54.67 | 183031 | 205147
21 | 45:35.23 | 0:40.68 | 205148 | 208215
22 | 46:16.16 | 1:03.09 | 208216 | 212949
23 | 47:19.25 | 4:05.73 | 212950 | 231397
24 | 51:25.23 | 1:08.22 | 231398 | 236519
25 | 52:33.45 | 0:53.15 | 236520 | 240509
26 | 53:26.60 | 2:23.07 | 240510 | 251241
27 | 55:49.67 | 4:29.71 | 251242 | 271487
28 | 60:19.63 | 2:05.01 | 271488 | 280863
29 | 62:24.64 | 6:23.46 | 280864 | 309634
30 | 68:48.35 | 3:28.29 | 309635 | 325263
31 | 72:16.64 | 1:02.00 | 325264 | 329913
32 | 73:18.64 | 0:33.61 | 329914 | 332449
33 | 73:52.50 | 1:08.74 | 332450 | 337623
34 | 75:01.49 | 1:13.73 | 337624 | 343171
35 | 76:15.47 | 3:57.35 | 343172 | 360981


Range status and errors

Selected range

Filename C:\temp\BIS-SACD-2500 - Bach - St Matthew Passion - Bach Collegium Japan, Suzuki - 2019\CD1\Bach - Matthaus-Passion - CD1.wav

Peak level 97.1 %
Extraction speed 2.3 X
Range quality 100.0 %
Test CRC 1322DEA4
Copy CRC 1322DEA4
Copy OK

No errors occurred


AccurateRip summary

Track 1 accurately ripped (confidence 9) [631A6E8F] (AR v2)
Track 2 accurately ripped (confidence 10) [005686C0] (AR v2)
Track 3 accurately ripped (confidence 10) [75383B26] (AR v2)
Track 4 accurately ripped (confidence 10) [9930E07B] (AR v2)
Track 5 accurately ripped (confidence 10) [723D0EB9] (AR v2)
Track 6 accurately ripped (confidence 10) [2D99A3A2] (AR v2)
Track 7 accurately ripped (confidence 10) [915B131F] (AR v2)
Track 8 accurately ripped (confidence 10) [DF82E375] (AR v2)
Track 9 accurately ripped (confidence 10) [5B7E81A9] (AR v2)
Track 10 accurately ripped (confidence 10) [04C3F554] (AR v2)
Track 11 accurately ripped (confidence 10) [CF161B41] (AR v2)
Track 12 accurately ripped (confidence 10) [64801EAF] (AR v2)
Track 13 accurately ripped (confidence 10) [F378846B] (AR v2)
Track 14 accurately ripped (confidence 10) [4450CB6A] (AR v2)
Track 15 accurately ripped (confidence 10) [A1FADB56] (AR v2)
Track 16 accurately ripped (confidence 10) [E5F12E03] (AR v2)
Track 17 accurately ripped (confidence 10) [2261293C] (AR v2)
Track 18 accurately ripped (confidence 10) [DC8F5BCD] (AR v2)
Track 19 accurately ripped (confidence 10) [47AC7378] (AR v2)
Track 20 accurately ripped (confidence 10) [E1AB0347] (AR v2)
Track 21 accurately ripped (confidence 10) [32AB5D17] (AR v2)
Track 22 accurately ripped (confidence 10) [85DA9ADB] (AR v2)
Track 23 accurately ripped (confidence 10) [656A7030] (AR v2)
Track 24 accurately ripped (confidence 10) [E3F31FD1] (AR v2)
Track 25 accurately ripped (confidence 10) [773EF710] (AR v2)
Track 26 accurately ripped (confidence 10) [D4150A25] (AR v2)
Track 27 accurately ripped (confidence 10) [05D142B6] (AR v2)
Track 28 accurately ripped (confidence 10) [D9842D06] (AR v2)
Track 29 accurately ripped (confidence 9) [C0C345FC] (AR v2)
Track 30 accurately ripped (confidence 10) [FDEBE1B2] (AR v2)
Track 31 accurately ripped (confidence 10) [02AC908A] (AR v2)
Track 32 accurately ripped (confidence 10) [FC20CC0E] (AR v2)
Track 33 accurately ripped (confidence 9) [6FB4D228] (AR v2)
Track 34 accurately ripped (confidence 9) [F0420A89] (AR v2)
Track 35 accurately ripped (confidence 9) [247E3658] (AR v2)

All tracks accurately ripped

End of status report

==== Log checksum A605FBF845C319F5A7AEF1513A2723D40F4D1BA9C38AABA54C1322F073226EC5 ====


Exact Audio Copy V1.5 from 20. February 2020

EAC extraction logfile from 3. March 2021, 0:06

Bach Collegium Japan, Masaaki Suzuki / Bach - Matthäus-Passion - CD2

Used drive : ASUS SDRW-08U7M-U Adapter: 1 ID: 0

Read mode : Secure
Utilize accurate stream : Yes
Defeat audio cache : Yes
Make use of C2 pointers : No

Read offset correction : 6
Overread into Lead-In and Lead-Out : No
Fill up missing offset samples with silence : Yes
Delete leading and trailing silent blocks : No
Null samples used in CRC calculations : Yes
Used interface : Native Win32 interface for Win NT & 2000

Used output format : User Defined Encoder
Selected bitrate : 128 kBit/s
Quality : High
Add ID3 tag : No
Command line compressor : C:\Program Files (x86)\Exact Audio Copy\Flac\flac.exe
Additional command line options : -V -8 -T "Date=%year%" -T "Genre=%genre%" %source%


TOC of the extracted CD

Track | Start | Length | Start sector | End sector
––––––––––––––––––––––––––––-
1 | 0:00.00 | 2:00.44 | 0 | 9043
2 | 2:00.44 | 0:38.28 | 9044 | 11921
3 | 2:38.72 | 2:26.10 | 11922 | 22881
4 | 5:05.07 | 6:20.15 | 22882 | 51396
5 | 11:25.22 | 1:02.47 | 51397 | 56093
6 | 12:27.69 | 1:49.41 | 56094 | 64309
7 | 14:17.35 | 2:48.35 | 64310 | 76944
8 | 17:05.70 | 2:13.30 | 76945 | 86949
9 | 19:19.25 | 0:59.66 | 86950 | 91440
10 | 20:19.16 | 2:20.18 | 91441 | 101958
11 | 22:39.34 | 0:39.17 | 101959 | 104900
12 | 23:18.51 | 0:17.46 | 104901 | 106221
13 | 23:36.22 | 1:12.74 | 106222 | 111695
14 | 24:49.21 | 5:11.07 | 111696 | 135027
15 | 30:00.28 | 1:50.10 | 135028 | 143287
16 | 31:50.38 | 1:07.44 | 143288 | 148356
17 | 32:58.07 | 5:58.69 | 148357 | 175275
18 | 38:57.01 | 1:09.65 | 175276 | 180515
19 | 40:06.66 | 1:55.62 | 180516 | 189202
20 | 42:02.53 | 0:56.40 | 189203 | 193442
21 | 42:59.18 | 0:39.04 | 193443 | 196371
22 | 43:38.22 | 5:43.55 | 196372 | 222151
23 | 49:22.02 | 3:29.27 | 222152 | 237853
24 | 52:51.29 | 1:39.67 | 237854 | 245345
25 | 54:31.21 | 2:57.41 | 245346 | 258661
26 | 57:28.62 | 2:21.23 | 258662 | 269259
27 | 59:50.10 | 1:21.44 | 269260 | 275378
28 | 61:11.54 | 2:55.01 | 275379 | 288504
29 | 64:06.55 | 1:47.10 | 288505 | 296539
30 | 65:53.65 | 6:04.54 | 296540 | 323893
31 | 71:58.44 | 2:37.72 | 323894 | 335740
32 | 74:36.41 | 2:09.47 | 335741 | 345462
33 | 76:46.13 | 6:14.69 | 345463 | 373581


Range status and errors

Selected range

Filename C:\temp\BIS-SACD-2500 - Bach - St Matthew Passion - Bach Collegium Japan, Suzuki - 2019\CD2\Bach - Matthaus-Passion - CD2.wav

Peak level 95.7 %
Extraction speed 2.4 X
Range quality 100.0 %
Test CRC D86B17CB
Copy CRC D86B17CB
Copy OK

No errors occurred


AccurateRip summary

Track 1 accurately ripped (confidence 9) [A36B08E1] (AR v2)
Track 2 accurately ripped (confidence 9) [67355E28] (AR v2)
Track 3 accurately ripped (confidence 9) [307FE5C7] (AR v2)
Track 4 accurately ripped (confidence 9) [D6631087] (AR v2)
Track 5 accurately ripped (confidence 9) [66781D2E] (AR v2)
Track 6 accurately ripped (confidence 10) [2BB8B404] (AR v2)
Track 7 accurately ripped (confidence 9) [E4CC874F] (AR v2)
Track 8 accurately ripped (confidence 9) [19752DD1] (AR v2)
Track 9 accurately ripped (confidence 10) [6DB4562D] (AR v2)
Track 10 accurately ripped (confidence 9) [ABA1D61E] (AR v2)
Track 11 accurately ripped (confidence 10) [7675A57C] (AR v2)
Track 12 accurately ripped (confidence 10) [5417D3EC] (AR v2)
Track 13 accurately ripped (confidence 10) [86D572BD] (AR v2)
Track 14 accurately ripped (confidence 10) [8487850F] (AR v2)
Track 15 accurately ripped (confidence 10) [07FFE520] (AR v2)
Track 16 accurately ripped (confidence 10) [41EDA8E2] (AR v2)
Track 17 accurately ripped (confidence 9) [6D258C28] (AR v2)
Track 18 accurately ripped (confidence 10) [2F08774E] (AR v2)
Track 19 accurately ripped (confidence 10) [B4FB42D6] (AR v2)
Track 20 accurately ripped (confidence 10) [DEBCA533] (AR v2)
Track 21 accurately ripped (confidence 10) [1D85DC5B] (AR v2)
Track 22 accurately ripped (confidence 9) [297E1AF0] (AR v2)
Track 23 accurately ripped (confidence 9) [99473ED9] (AR v2)
Track 24 accurately ripped (confidence 9) [C3DB8A2F] (AR v2)
Track 25 accurately ripped (confidence 9) [1589E8C3] (AR v2)
Track 26 accurately ripped (confidence 9) [61051A7E] (AR v2)
Track 27 accurately ripped (confidence 9) [A3A40F25] (AR v2)
Track 28 accurately ripped (confidence 9) [6EEB11C9] (AR v2)
Track 29 accurately ripped (confidence 9) [30F5309B] (AR v2)
Track 30 accurately ripped (confidence 9) [ABEE20EF] (AR v2)
Track 31 accurately ripped (confidence 9) [AE6E751A] (AR v2)
Track 32 accurately ripped (confidence 9) [B26EBA79] (AR v2)
Track 33 accurately ripped (confidence 9) [9CAC93BA] (AR v2)

All tracks accurately ripped

End of status report

==== Log checksum 4477C38539A3BD37312B8A8AAF82BCA3D762A3DABB74AFE3C52A85B97C88D83D ====

Masaaki Suzuki, Bach Collegium Japan - Johann Sebastian Bach: Matthäus-Passion (2019)

Thanks to the original releaser