Tags
Language
Tags

Masaaki Suzuki, Bach Collegium Japan - Bach: The Sacred Masterworks - Mass, Passions, Oratorios [10CDs] (2008)

Posted By: ArlegZ
Masaaki Suzuki, Bach Collegium Japan - Bach: The Sacred Masterworks - Mass, Passions, Oratorios [10CDs] (2008)

Masaaki Suzuki, Bach Collegium Japan - Bach: The Sacred Masterworks - Mass, Passions, Oratorios [10CDs] (2008)
EAC | FLAC | Image (Cue & Log) ~ 2,69 Gb | Total time: 10h 15m 47s | Scans included
Classical | Label: BIS | # BIS-CD- 9020/22 | Recorded: 1998, 1999, 2004, 2007

The ongoing cantata cycle of Masaaki Suzuki and his Bach Collegium Japan was initiated in 1995. The series has now reached its 40th volume, in the meantime receiving an astonishing number of distinctions from magazines and critics all over the world. But parallell to their cantata cycle, Suzuki and his Collegium have also recorded Bach’s larger-scaled choral works; recordings which have caught the imagination and attention of audiences and critics alike.
''Throughout this ongoing series I have come to consider the magnificent direction of Masaaki Suzuki to be one of the greatest recording achievements of my lifetime'' –(MusicWeb International)
''Compelling performances - the sheer polish and technical accomplishment of the music-making immediately hold the ear, and are reinforced by subtle phrasing and a quality of listening among all concerned that allows Bach's counterpoint to progress with lightness and jaw-dropping clarity'' –(Classic FM Magazine)

Performer:
Rachel Nicholls, soprano
Carolyn Sampson, soprano
Monika Frimmer, soprano
Yukari Nonoshita, soprano
Yoshie Hida, soprano
Ingrid Schmithüsen, soprano
Nancy Argenta, soprano
Robin Blaze, counter-tenor
Yoshikazu Mera, counter-tenor
Patrick van Goethem, counter-tenor
Gerd Türk, tenor
Jan Kobow, tenor
Makoto Sakurada, tenor
Peter Kooij, bass
Chiyuki Urano, bass
Bach Collegium Japan
Conductor - Masaaki Suzuki

Track List:
Disc 1: St. John Passion
1-14. Part 1
15-24. Part 2 (Opening)
Disc 2: St. John Passion
1-16. Part 2 (Conclusion)
17-19. Appendix
Disc 3: St. Matthew Passion
1-36. Part 1
Disc 4: St. Matthew Passion
1-39. Part 2 (Opening)
Disc 5: St. Matthew Passion
1-26. Part 2 (Conclusion)
Disc 6: Mass in B Minor (Opening)
1-3. Kyrie
4-12. Gloria
Disc 7: Mass in B Minor (Conclusion)
1-9. Symbolum Nicenum (Credo)
10. Sanctus
11-13. Osanna - Benedictus
14. Agnus Dei
15. Dona nobis pacem
Disc 8: Christmas Oratorio
1-9. I. Jauchzet, frohlocket! auf, preiset die Tage
10-23. II. Und es waren Hirten in derselben Gegend
24-36. III. Herrscher des Himmels, erhore das Lallen
Disc 9: Christmas Oratorio
1-7. IV. Fallt mit Danken, fallt mit Loben
8-18. V. Ehre sei dir, Gott, gesungen
19-29. VI. Herr, wenn die stolzen Feinde schnauben
Disc 10: Easter Oratorio - Ascension Oratorio
1-11. Kommt, Eilet Und Laufet (Easter Oratorio)
12-20. Lobet Gott in Seinen Reichen (Ascension Oratorio)


CD1:
Johannes-Passion, BWV 245 (Fassung IV • 1749)
Erster Teil • Part I
3-1 1. Chor. Herr, Unser Herrscher, Dessen Ruhm …
3-2 2a. Rezitativ. Jesus Ging Mit Seinen Jüngern … (Evangelist, Jesus) • 2b. Chor. Jesum Von Nazareth! • 2c. Rezitativ. Jesus Spricht Zu Ihnen … (Evangelist, Jesus) • 2d. Chor. Jesum Von Nazareth! • 2e. Rezitativ. Jesus Antwortete … (Evangelist, Jesus)
3-3 3. Choral. O Große Lieb', O Lieb' Ohn' Alle Maße …
3-4 4. Rezitativ. Auf Dass Das Wort Erfüllet Würde … (Evangelist, Jesus)
3-5 5. Choral. Dein Will' Gescheh', Herr Gott, Zugleich …
3-6 6. Rezitativ. Die Schar Aber Und Der Oberhauptmann … (Evangelist)
3-7 7. Arie. Von Den Stricken Meinr Sünden … (Alt)
3-8 8. Rezitativ. Simon Petrus Aber Folgete Jesum Nach … (Evangelist)
3-9 9. Arie. Ich Folge Dir Gleichfalls … (Sopran)
3-10 10. Rezitativ. Derselbige Jünger War Dem Hohenpriester Bekannt … (Evangelist, Magd, Petrus, Jesus, Diener)
3-11 11. Choral. Wer Hat Dich So Geschlagen …
3-12 12a. Rezitativ. Und Hannas Sandte Ihn Gebunden … (Evangelist) • 12b. Chor. Bist Du Nicht Seiner Jünger Einer? • 12c. Rezitativ. Er Leugnete Aber … (Evangelist, Petrus, Diener)
3-13 13. Arie. Ach, Mein Sinn … (Tenor)
3-14 14. Choral. Petrus, Der Nicht Denkt Zurück …
Zweiter Teil • Part II
3-15 15. Choral. Christus, Der Uns Selig Macht …
3-16 16a. Rezitativ. Da Führeten Sie Jesum … (Evangelist, Pilatus) • 16b. Chor. Wäre Dieser Nicht Ein Übeltäter … • 16c. Rezitativ. Da Sprach Pilatus Zu Ihnen … (Evangelist, Pilatus) • 16d. Chor. Wir Dürfen Niemand Töten … • 16e. Rezitativ. Auf Dass Erfüllet Würde … (Evangelist, Pilatus, Jesus)
3-17 17. Choral. Ach, Großer König, Groß Zu Allen Zeiten …
3-18 18a. Rezitativ. Da Sprach Pilatus Zu Ihm … (Evangelist, Pilatus, Jesus) • 18b. Chor. Nicht Diesen, Diesen Nicht, Sondern Barrabam! • 18c. Rezitativ. Barrabas Aber War Ein Mörder … (Evangelist)
3-19 19. Arioso. Betrachte, Meine Seel', Mit Ängstlichem Vergnügen … (Bass)
3-20 20. Arie. Mein Jesu, Ach! Dein Schmerzhaft Bitter Leiden … (Tenor)
3-21 21a. Rezitativ. Und Die Kriegsknechte Flochten … (Evangelist) • 21b. Chor. Sei Gegrüßet, Lieber Judenkönig! • 21c. Rezitativ. Und Gaben Ihm Backenstreiche … (Evangelist, Pilatus) • 21d. Chor. Kreuzige, Kreuzige! • 21e. Rezitativ. Pilatus Sprach Zu Ihnen … (Evangelist, Pilatus) • 21f. Chor. Wir Haben Ein Gesetz … • 21g. Rezitativ. Da Pilatus Das Wort Hörete … (Evangelis, Pilatus, Jesus)
3-22 22. Choral. Durch Dein Gefängnis, Gottes Sohn …
3-23 23a. Rezitativ. Die Juden Aber Schrieen Und Sprachen (Evangelist) • 23b. Chor. Lässest Du Diesen Los … • 23c. Rezitativ. Da Pilatus Das Wort Hörete … (Evangelist, Pilatus) • 23d. Chor. Weg, Weg Mit Dem, Kreuzige Ihn! • 23e. Rezitativ. Spricht Pilatus Zu Ihnen … (Evangelist, Pilatus) • 23f. Chor. Wir Haben Keinen König, Denn Den Kaiser • 23g. Rezitativ. Da Überantwortete Er Ihn … (Evangelist)
3-24 24. Arie Mit Chor. Eilt, Ihr Angefocht'nen Seelen … (Bass)
CD2:
4-1 25a. Rezitativ. Allda Kreuzigten Sie Ihn … (Evangelist) • 25b. Chor. Schreibe Nicht Der Juden König … • 25c. Rezitativ. Pilatus Antwortet … (Evangelist, Pilatus)
4-2 26. Choral. In Meines Herzens Grunde …
4-3 27a. Rezitativ. Die Kriegsknechte Aber … (Evangelist) • 27b. Chor. Lasset Uns Den Nicht Zerteilen … • 27c. Rezitativ. Auf Dass Erfüllet Würde Die Schrift … (Evangelist, Jesus)
4-4 28. CHoral. Er Nahm Alles Wohl In Acht …
4-5 29. Rezitativ. Und Von Stund' An Nahm Sie Der Jünger … (Evangelist, Jesus)
4-6 30. Arie. Es Is Vollbracht! … (Alt)
4-7 31. Rezitativ. Und Neiget Das Haupt Und Verschied (Evangelist)
4-8 32. Arie Mit Chor. Mein Teurer Heiland, Lass Dich Fragen … (Bass)
4-9 33. Rezitativ. Und Siehe Da, Der Vorhang Im Tempel Zerriss … (Evangelist)
4-10 34. Arioso. Mein Herz! In Dem Die Ganze Welt … (Tenor)
4-11 35. Aria. Zerfließe, Mein Herze, In Fluten Der Zähren … (Sopran)
4-12 36. Rezitativ. Die Juden Aber, Dieweil Es Der Rüsttag War … (Evangelist)
4-13 37. Choral. O Hilf, Christe, Gottes Sohn …
4-14 38. Rezitativ. Darnach Bat Pilatum Joseph Von Arimathia … (Evangelist)
4-15 39. Chor. Ruht Wohl, Ihr Heiligen Gebeine …
4-16 40. Choral. Ach, Herr, Lass Dein' Lieb' Engelein …
Anhang (Fassung II • 1725) • Appendix (Version II • 1725)
4-17 11. Arie Mit Choral. Himmel, Reiße, Welt, Erbebe … (Bass, Sopran), BWV 245a
4-18 13.II. Arie. Zerschmettert Mich, Ihr Felsen Und Ihr Hügel … (Tenor), BWV 245b
4-19 19.II. Arie. Ach Windet Euch Nicht So, Geplagte Seelen … (Tenor), BWV 245c
CD3:
Matthäus-Passion, BWV 244
Erster Teil • Part I
5-1 1. Chor Mit Choral. Kommt, Ihr Töchter, Helft Mir Klagen … (Chor I / Chor II / Soprano In Ripieno)
Salbung In Bethanien • Anointing In Bethany
5-2 2. Rezitativ. Da Jesus Diese Rede Vollendet Hatte … (Evangelist, Jesus)
5-3 3. Choral. Herzliebster Jesu, Was Hast Du Verbrochen … (Chor I & II)
5-4 4a. Rezitativ. Da Versammleten Sich Die Hohenpriester … (Evangelist)
5-5 4b. Chor. Ja Nicht Auf Das Fest … (Chor I / Chor II)
5-6 4c. Rezitativ. Da Nun Jesus War Zu Bethanien … (Evangelist)
5-7 4d. Chor. Wozu Dienet Dieser Unrat? … (Chor I)
5-8 4e. Rezitativ. Da Das Jesus Merkte, Sprach Er Zu Ihnen … (Evangelist, Jesus)
5-9 5. Rezitativ. Du Lieber Heiland Du … (Alt)
5-10 6. Arie. Buß Und Reu … (Alt)
Verrat Des Judas • Judas's Betrayal
5-11 7. Rezitativ. Da Ging Hin Der Zwölfen Einer … (Evangelist, Judas)
5-12 8. Arie. Blute Nur, Du Liebes Herz! … (Sopran)
Abendmahl • The Last Supper
5-13 9a. Rezitativ. Aber Am Ersten Tage … (Evangelist)
5-14 9b. Chor. Wo Willst Du, Dass Wir Dir Bereiten … (Chor I)
5-15 9c. Rezitativ. Er Sprach: Gehet Hin In Die Stadt … (Evangelist, Jesus)
5-16 9d. Rezitativ. Und Sie Wurden Sehr Betrübt … (Evangelist)
5-17 9e. Chor. Herr, Bin Ich's? (Chor I)
5-18 10. Chor. Ich Bin's, Ich Sollte Büßen … (Chor I & II)
5-19 11. Rezitativ. Er Antwortete Und Sprach: Der Mit Der Hand … (Evangelist, Jesus, Judas) 2:51
5-20 12. Rezitativ. Wiewohl Mein Herz In Tränen Schwimmt … (Sopran)
5-21 13. Arie. Ich Will Dir Mein Herze Schenken … (Sopran)
Jesu Zagen Am Ölberg • Jesus' Despair On The Mount Of Olives
5-22 14.Rezitativ. Und Da Sie Den Logbesang Gesprochen Hatten … (Evangelist, Jesus)
5-23 15. Choral. Erkenne Mich, Mein Hüter … (Chor I & II)
5-24 16. Rezitativ. Petrus Aber Antwortete Und Sprach Zu Ihm … (Evangelist, Petrus, Jesus)
5-25 17. Choral. Ich Will Hier Bei Dir Stehen … (Chor I & II)
5-26 18. Rezitativ. Da Kam Jesus Mit Ihnen Zu Einem Hofe … (Evangelist, Jesus)
5-27 19. Rezitativ. O Schmerz! Hier Zittert Das Gequälte Herz … (Tenore, Chor II)
5-28 20. Arie. Ich Will Bei Meinem Jesu Wachen … (Tenore, Chor II)
Gebet Am Ölberg • Prayer On The Mout Of Olives
5-29 21. Rezitativ. Und Ging Hin Ein Wenig … (Evangelist, Jesus)
5-30 22. Rezitativ. Der Heiland Fällt Vor Seinem Vater Nieder … (Bass)
5-31 23. Arie. Gerne Will Ich Mich Bequemen … (Bass)
5-32 24. Rezitativ. Und Er Kam Zu Seinen Jüngern … (Evangelist, Jesus)
5-33 25. Choral. Was Mein Gott Will, Das G'scheh Allzeit … (Chor I & II)
Gefangennahme • Arrest Of Jesus
5-34 26. Rezitativ. Und Er Kam Und Fand Sie Aber Schlafend … (Evangelist, Jesus, Judas)
5-35 27a. Arie So Ist Mein Jesus Nun Gefangen … (Sopran, Alt, Chor II)
5-36 27b. Chor. Sind Blitze, Sind Donner In Wolken Verschwunden? … (Chor I / Chor II)
5-37 28. Rezitativ. Und Siehe, Einer Aus Denen, Die Mit Jesu Waren … (Evangelist, Jesus)
5-38 29. Choral. O Mensch, Bewein Den Sünde Groß … (Chor I & II / Soprano In Ripieno)
CD4:
Zweiter Teil • Part II
6-1 30. Arie. Ach! Nun Ist Mein Jesus Hin! … (Alt, Chor II)
Verhör Vor Den Hohenpriestern • Interrogation By The Chief Priests
6-2 31. Rezitativ. Die Aber Jesum Gegriffen Hatten … (Evangelist)
6-3 32. Choral. Mir Hat Die Welt Trüglich Gericht' … (Chor I & II)
6-4 33. Rezitativ. Und Wiewohl Viel Falsche Zeugen … (Evangelist, Pontifex, Testis I, II)
6-5 34. Rezitativ. Mein Jesus Schweigt … (Tenor)
6-6 35. Arie. Geduld! Wenn Mich Falsche Zungen Stechen … (Tenor)
6-7 36a. Rezitativ. Und Der Hohepriester Antwortete … (Evangelist, Pontifex, Jesus)
6-8 36b. Chor. Er Ist Des Todes Schuldig! (Chor I / Chor II)
6-9 36c. Rezitativ. Da Speieten Sie Aus In Sein Angesicht … (Evangelist)
6-10 36d. Chor. Weissage Uns, Christe … (Chor I / Chor II)
6-11 37. Choral. Wer Hat Dich So Geschlagen … (Chor I & II)
Petri Verleugnung • Peter's Denial
6-12 38a. Rezitativ. Petrus Aber Saß Draußen Im Palast … (Evangelist, Ancilla I, II, Petrus)
6-13 38b. Chor. Wahrlich, Du Bist Auch Einer Von Denen … (Chor II)
6-14 38c. Rezitativ. Da Hub Er An, Sich Zu Verfluchen … (Evangelist, Petrus)
6-15 39. Aria. Erbarme Dich … (Alt)
6-16 40. Choral. Bin Ich Gleich Von Dir Gewichen … (Chor I & II)
Judas Im Tempel • Judas In The Temple
6-17 41a. Rezitativ. Des Morgens Aber Hielten Alle Hohepriester … (I: Evangelist, Judas)
6-18 41b. Chor. Was Gehet Uns Das An? … (Chor I / Chor II)
6-19 41c. Rezitativ. Und Er Warf Die Silberlinge In Den Tempel … (Evangelist, Pontifex I, II)
6-20 42. Arie. Gebt Mir Meinen Jesum Wieder! … (Bass)
Jesus Vor Pilatus • Jesus Before Pilate
6-21 43. Rezitativ. Sie Hielten Aber Einen Rat … (Evangelist, Pilatus, Jesus)
6-22 44. Choral. Befiehl Du Deine Wege … (Chor I & II)
6-23 45a. Rezitativ. Auf Das Fest Aber … (Evangelist, Pilatus, Uxor Pilati, Chor I / Chor II)
6-24 45b. Chor. Laß Ihn Kreuzigen! (Chor I & II)
6-25 46. Choral. Wie Wunderbarlich Ist Doch Diese Strafe! … (Chor I & II)
6-26 47. Rezitativ. Der Landpfleger Sagte: Was Hat Der Denn Übels Getan? (Evangelis, Pilatus)
6-27 48. Rezitativ. Er Hat Uns Allen Wohlgetan … (Sopran)
6-28 49. Arie. Aus Liebe, Aus Liebe Will Mein Heiland Sterben … (Sopran)
6-29 50a. Rezitativ. Sie Schrieen Aber Noch Mehr Und Sprachen: (Evangelist)
6-30 50b. Chor. Laß Ihn Kreuzigen! (Chor I & II)
6-31 50c. Rezitativ. Da Aber Pilatus Sahe, Dass Er Nichts Schaffete … (Evangelist, Pilatus)
6-32 50d. Chor. Sein Blut Komme Über Uns Und Unsere Kinder (Chor I & II)
6-33 50e. Rezitativ. Da Gab Er Ihnen Barrabam Los … (Evangelist)
Jesu Geisselung • Scourging Of Jesus
6-34 51. Rezitativ. Erbarm Es Gott! … (Alt)
6-35 52. Können Tränen Meiner Wangen … (Alt)
6-36 53a. Rezitativ. Da Nahmen Die Kriegsknechte Des Landpflegers Jesum Zu Sich … (Evangelist)
6-37 53b. Chor. Gegrüßet Seist Du, Judenkönig! (Chor I / Chor II)
6-38 53c. Rezitativ. Und Speieten Ihn An … (Evangelist)
6-39 54. Choral. O Haupt Voll Blut Und Wunden … (Chor I & II)
Simon Von Kyrene • Simon Of Cyrene
CD5:
7-1 55. Rezitativ. Und Da Sie Ihn Verspottet Hatten … (Evangelist)
7-2 56. Rezitativ. Ja Freilich Will In Uns Das Fleisch Und Blut … (Bass)
7-3 57. Arie. Komm, Süßes Kreuz, So Will Ich Sagen … (Bass)
Kreuzigung • The Crucifixion
7-4 58a. Rezitativ. Und Da Sie An Die Stätte Kamen Mit Namen Golgatha … (Evangelist)
7-5 58b. Chor. Der Du Den Tempel Gottes Zerbrichst … (Chor I / Chor II)
7-6 58c. Rezitativ. Desgleichen Auch Die Hohenpriester Spotteten Sein … (Evangelist)
7-7 58d. Chor. Andern Hat Er Geholfen Und Kann Ihm Selber Nicht Helfen … (Chor I / Chor II)
7-8 58e. Rezitativ. Desgleichen Schmäheten Ihn Auch Die Mörder … (Evangelist)
7-9 59. Rezitativ. Ach Golgatha, Unselges Golgatha! … (Alt)
7-10 60. Arie. Sehet, Jesus Hat Die Hand … (Alt, Chor II)
7-11 61a. Rezitativ. Und Von Der Sechsten Stunde An … (Evangelist, Jesus)
7-12 61b. Chor. Der Rufet Dem Elias! (Chor I)
7-13 61c. Rezitativ. Und Bald Lief Einer Unter Ihnen … (Evangelist)
7-14 61d. Chor. Halt! Laß Sehen, Ob Elias Komme Und Ihm Helfe? (Chor II)
7-15 61e. Rezitativ. Aber Jesus Schriee Abermal Laut Und Verschied. (Evangelist)
7-16 62. Choral. Wenn Ich Einmal Soll Scheiden … (Chor I & II)
7-17 63a. Rezitativ. Und Siehe Da, Der Vorhang Im Tempel Zerriß In Zwei Stück … (Evangelist)
7-18 63b. Chor. Wahrlich, Dieser Ist Gottes Sohn Gewesen. (Chor I & II)
Kreuzabnahme • Descent From The Cross
7-19 63c. Rezitativ. Und Es Waren Viel Weiber Da, Die Von Ferne Zusahen … (Evangelist)
7-20 64. Rezitativ. Am Abend, Da Es Kühle War … (Bass)
7-21 65. Arie. Mache Dich, Mein Herze, Rein … (Bass)
Grablegung • Burial
7-22 66a. Rezitativ. Und Joseph Nahm Den Leib … (Evangelist)
7-23 66b. Chor. Herr, Wir Haben Gedacht, Dass Dieser Verführer Sprach … (Chor I & II)
7-24 66c. Rezitativ. Pilatus Sprach Zu Ihnen: Da Habt Ihr Die Hüter … (Evangelist, Pilatus)
7-25 67. Rezitativ. Nun Ist Der Herr Zu Ruh Gebracht … (Bass, Tenor, Alt, Sopran, Chor II)
7-26 68. Chor. Wir Setzen Uns Mit Tränen Nieder … (Chor I / Chor II)
CD6:
Mass In B Minor, BWV 232
I. Missa
Kyrie
1-1 1. Kyrie Eleison
1-2 2. Christe Eleison
1-3 3. Kyrie Eleison (II)
Gloria
1-4 4. Gloria In Excelsis Deo
1-5 5. Et In Terra Pax
1-6 6. Laudamus Te
1-7 7. Gratias Agimus Tibi
1-8 8. Domine Deus
1-9 9. Qui Tollis Peccata Mundi
1-10 10. Qui Sedes Ad Dextram Patris
1-11 11. Quoniam Tu Solus Sanctus
1-12 12. Cum Sancto Spiritu
CD7:
II. Symbolum Nicenum (Credo)
2-1 13. Credo In Unum Deum
2-2 14. Patrem Omnipotentem
2-3 15. Et In Unum Dominum Jesum Christum
2-4 16. Et Incarnatus Est
2-5 17. Crucifixus
2-6 18. Et Resurrexit
2-7 19. Et In Spiritum Sanctum
2-8 20. Confiteor Unum Baptisma
2-9 21. Et Exspecto Resurrectionem Mortuorum
III. Sanctus
2-10 22. Sanctus
IV. Osanna, Benedictus, Agnus Dei Et Dona Nobis Pacem
2-11 23. Osanna In Excelsis
2-12 24. Benedictus
2-13 25. Osanna In Excelsis
2-14 26. Agnus Dei
2-15 27. Dona Nobis Pacem
CD8:
Weihnachtsoratorium, BWV 248
I. Teil: Jauchzet, Frohlocket! Auf, Preiset Die Tage • Am 1. Weihnachtstag (25th December 1734)
8-1 1. Chor. Jauchzet, Frohlocket! Auf, Preiset Die Tage …
8-2 2. Rezitativ (Tenor [Evangelist]). Es Begab Sich Aber Zu Der Zeit …
8-3 3. Rezitativ (Alt). Nun Wird Mein Liebster Bräutigam …
8-4 4. Arie (Alt). Bereite Dic, Zion …
8-5 5. Choral. Wie Soll Ich Dich Empfangen …
8-6 6. Rezitativ (Tenor [Evangelist]). Und Sie Gebar Ihren Ersten Sohn …
8-7 7. Choral Und Rezitativ (Sopran, Bass). Er Ist Auf Erden Kommen Arm …
8-8 8. Arie (Bass). Großer Herr, O Starker König …
8-9 9. Choral. Ach, Mein Herzliebes Jesulein …
II. Teil: Und Es Waren Hirten In Derselben Gegend • Am 2. Weihnachtstag (26th December 1734)
8-10 10. Sinfonia
8-11 11. Rezitativ (Tenor [Evangelist]). Und Es Waren Hirten In Derselben Gegend …
8-12 12. Choral. Brich An, Du Schönes Morgenlicht …
8-13 13. Rezitativ (Tenor, Sopran [Evangelist, Der Engel]). Und Der Engel Sprach …
8-14 14. Rezitativ (Bass). Was Gott Dem Abraham Verheißen …
8-15 15. Arie (Tenor). Frohe Hirten, Eilt, Ach Eilet …
8-16 16. Rezitativ (Tenor [Evangelist]). Und Das Habt Zum Zeichen …
8-17 17. Choral. Schaut Hin! Dort Liegt Im Finstern Stall …
8-18 18. Rezitativ (Bass). So Geht Denn Hin, Ihr Hirten, Geht …
8-19 19. Arie (Alt): Schlafe, Mein Liebster, Genieße Der Ruh …
8-20 20. Rezitativ (Tenor [Evangelist]). Und Alsobald War Da Bei Dem Engel …
8-21 21. Chor. Ehre Sei Gott In Der Höhe …
8-22 22. Rezitativ (Bass). So Recht, Ihr Engel, Jauchzt Und Singet …
8-23 23. Choral. Wir Singen Dir In Deinem Heer …
III. Teil: Herrscher Des Himmels, Erhöre Das Lallen • Am 3. Weihnachtstag (27 December 1734)
8-24 24. Chor. Herrscher Des Himmels, Erhöre Das Lallen …
8-25 25. Rezitativ (Tenor [Evangelist]). Und Da Die Engel Von Ihnen Gen Himmel Fuhren …
8-26 26. Chor (Die Hirten). Lasset Uns Nun Gehen Gen Bethlehem …
8-27 27. Rezitativ (Bass). Er Hat Sein Volk Getröst' …
8-28 28. Choral. Dies Hat Er Alles Uns Getan …
8-29 29. Aroe (Duett) (Sopran, Bass). Herr, Dein Mitleid, Dein Erbarmen …
8-30 30. Rezitativ (Tenor [Evangelist]). Und Sie Kamen Eilend …
8-31 31. Arie (Alt). Schließe, Mein Herze, Dies Selige Wunder …
8-32 32. Rezitativ (Alt). Ja, Ja! Mein Herz Soll Es Bewahren …
8-33 33. Choral. Ich Will Dich Mit Fleiß Bewahren …
8-34 34. Rezitativ (Tenor [Evangelist]). Und Die Hirten Kehrten Wieder Um …
8-35 35. Choral. Seid Froh Dieweil …
8-36 35b. Chor. Herrscher Des Himmels, Erhöre Das Lallen …
CD9:
IV. Teil: Fallt Mit Danken, Fallt Mit Loben • Am Fest Der Beschneidung Christi (1st January 1735)
9-1 36. Chor. Fallt Mit Danken, Fallt Mit Loben …
9-2 37. Rezitativ (Tenor [Evangelist]). Und Da Acht Tage Um Waren …
9-3 38. Rezitativ (Bass) Und Duett (Sopran, Bass). Immanuel, O Süßes Wort …
9-4 39. Arie (Sopran). Flößt Mein Heland, Flößt Dein Namen …
9-5 40. Rezitativ (Bass) Und Choral (Sopran). Wohlan! Dein Name Soll Allein …
9-6 41. Arie (Tenor). Ich Will Nur Dir Zu Ehren Leben …
Violin [Solo] – Azumi Takada, Natsumi Wakamatsu
9-7 42. Choral. Jesus Irchte Mein Beginnen …
V. Teil: Ehre Sei Dir, Gott, Gesungen • Am Sonntag Nach Neujahr (2nd January 1735)
9-8 43. Chor. Ehre Sei Dir, Gott, Gesungen …
9-9 44. Rezitativ (Tenor [Evangelist]). Da Jesus Geboren War Zu Bethlehem …
9-10 45. Chor Und Rezitativ (Alt). Wo Ist Der Neugeborne König Der Jüden? …
9-11 46. Choral. Dein Glanz All Finsternis Verzehrt …
9-12 47. Arie (Bass). Erleucht Auch Meine Finstre Sinnen …
9-13 48. Rezitativ (Tenor [Evangelist]). Da Das Der König Herodes Hörte …
9-14 49. Rezitativ (Alt). Warum Wollt Ihr Erschrecken? …
9-15 50. Rezitativ (Tenor [Evangelist]). Und Ließ Versammeln Alle Hohenpriester …
9-16 51. Arie (Terzett) (Sopran, Alt, Tenor). Ach, Wenn Wird Die Zeit Erscheinen? …
9-17 52. Rezitativ (Alt). Mein Liebster Herrschet Schon …
9-18 53. Choral. Zwar Ist Solche Herzensstube …
VI. Teil: Herr, Wenn Die Stolzen Feinde Schnauben • Am Epiphaniasfest (6th January 1735)
9-19 54. Chor. Herr, Wenn Die Stolzen Feinde Schnauben …
9-20 55. Rezitativ (Tenor, Bass [Evangelist, Herodes]). Da Berief Herodes …
9-21 56. Rezitativ (Sopran). Du Falscher, Suche Nur Den Herrn Zu Fällen …
9-22 57. Arie (Sopran). Nur Ein Wink Von Seinen Händen …
9-23 58. Rezitativ (Tenor [Evangelist]). Als Sie Nun Den König Gehöret Hatten …
9-24 59. Choral. Ich Steh An Deiner Krippen Hier …
9-25 60. Rezitativ (Tenor [Evangelist]). Und Gott Befahl Ihnen Im Traum …
9-26 61. Rezitativ (Tenor). So Geht! Genug, Mein Schatz Geht Nicht Von Hier …
9-27 62. Arie (Tenor). Nun Mögt Ihr Stolzen Feinde Schrecken …
9-28 63. Rezitativ (Sopran, Alt, Tenor, Bass). Was Will Der Hölle Schrecken Nun …
9-29 64. Choral. Nun Seid Ihr Wohl Gerochen …
CD10:
Kommt, Eilet Und Laufet, BWV 249 • Osteroratorium (Easter Oratorio), Final Version (6th April 1749)
10-1 1. Sinfonia
10-2 2. Adagio
10-3 3. Chor. Kommt, Eilet Und Laufet, Ihr Flüchtigen Füße …
10-4 4. Rezitativ (Sopran, Alt, Tenor, Bass). O Kalter Männer Sinn! …
10-5 5. Arie (Sopran). Seele, Deine Spezereien …
10-6 6. Rezitativ (Alt, Tenor, Bass). Hier Ist Die Gruft …
10-7 7. Arie (Tenor). Sanfte Soll Mein Todeskummer …
10-8 8. Rezitativ (Sopran, Alt). Indessen Seufzen Wir …
10-9 9. Arie (Alt). Saget, Saget Mir Geschwinde …
10-10 10. Rezitativ (Bass). Wir Sind Erfreut …
10-11 11. Chorus. Preis Und Dank …
Lobet Gott In Seinen Reichen, BWV 11 • Himmelfahrtsoratorium (Ascension Oratorio) (19th May 1735)
10-12 1. Chorus. Lobet Gott In Seinen Reichen …
10-13 2. Rezitativ (Tenor). Der Herr Jesus Hub Seine Hände Auf …
10-14 3. Rezitativ (Bass). Ach, Jesu, Ist Dein Abschied Schon So Nah?…
10-15 4. Arie (Alt). Ach, Bleibe Doch, Mein Liebstes Leben …
10-16 5. Rezitativ (Tenor). Und Ward Aufgehaben Zusehends …
10-17 6. Choral. Nun Lieget Alles Unter Dir …
10-18 7a. Rezitativ (Tenor, Bass). Und Da Sie Ihm Nachsahen … • 7b. Rezitativ (Alt). Ach Ja! So Komme Bald Zurück … • 7c. Rezitativ (Tenor). Sie Aber Beteten Ihn An …
10-19 8. Arie (Sopran). Jesu, Deine Gnadenblicke …
10-20 9. Choral. Wenn Soll Es Doch Geschehen …


Exact Audio Copy V1.3 from 2. September 2016

EAC extraction logfile from 30. January 2019, 18:17

Gerd Türk, Chiyuki Urano, Ingrid Schmithüsen, Yoshikazu Mera, Makoto Sakurada, Peter Kooij; Masaaki Suzuki / Bach - St. John Passion (Johannes-Passion) (Disc 1)

Used drive : ATAPI iHAS124 F Adapter: 1 ID: 0

Read mode : Secure
Utilize accurate stream : Yes
Defeat audio cache : Yes
Make use of C2 pointers : No

Read offset correction : 6
Overread into Lead-In and Lead-Out : No
Fill up missing offset samples with silence : Yes
Delete leading and trailing silent blocks : No
Null samples used in CRC calculations : Yes
Used interface : Native Win32 interface for Win NT & 2000

Used output format : User Defined Encoder
Selected bitrate : 1024 kBit/s
Quality : High
Add ID3 tag : No
Command line compressor : C:\Program Files (x86)\Exact Audio Copy\FLAC\FLAC.EXE
Additional command line options : -6 -V -T "ARTIST=%artist%" -T "TITLE=%title%" -T "ALBUM=%albumtitle%" -T "DATE=%year%" -T "TRACKNUMBER=%tracknr%" -T "GENRE=%genre%" -T "COMMENT=%comment%" -T "BAND=%albuminterpret%" -T "ALBUMARTIST=%albuminterpret%" -T "COMPOSER=%composer%" %haslyrics%–tag-from-file=LYRICS="%lyricsfile%"%haslyrics% -T "DISCNUMBER=%cdnumber%" -T "TOTALDISCS=%totalcds%" -T "TOTALTRACKS=%numtracks%" %hascover%–picture="%coverfile%"%hascover% %source% -o %dest%


TOC of the extracted CD

Track | Start | Length | Start sector | End sector
––––––––––––––––––––––––––––-
1 | 0:00.00 | 9:10.00 | 0 | 41249
2 | 9:10.00 | 2:25.12 | 41250 | 52136
3 | 11:35.12 | 0:47.08 | 52137 | 55669
4 | 12:22.20 | 1:09.70 | 55670 | 60914
5 | 13:32.15 | 0:45.65 | 60915 | 64354
6 | 14:18.05 | 0:47.47 | 64355 | 67926
7 | 15:05.52 | 4:32.50 | 67927 | 88376
8 | 19:38.27 | 0:12.63 | 88377 | 89339
9 | 19:51.15 | 3:47.67 | 89340 | 106431
10 | 23:39.07 | 3:02.30 | 106432 | 120111
11 | 26:41.37 | 1:23.28 | 120112 | 126364
12 | 28:04.65 | 2:21.10 | 126365 | 136949
13 | 30:26.00 | 2:36.22 | 136950 | 148671
14 | 33:02.22 | 1:11.53 | 148672 | 154049
15 | 34:14.00 | 0:54.42 | 154050 | 158141
16 | 35:08.42 | 4:09.03 | 158142 | 176819
17 | 39:17.45 | 1:23.07 | 176820 | 183051
18 | 40:40.52 | 1:53.38 | 183052 | 191564
19 | 42:34.15 | 2:34.22 | 191565 | 203136
20 | 45:08.37 | 7:15.05 | 203137 | 235766
21 | 52:23.42 | 5:29.13 | 235767 | 260454
22 | 57:52.55 | 1:00.10 | 260455 | 264964
23 | 58:52.65 | 4:15.02 | 264965 | 284091
24 | 63:07.67 | 4:13.08 | 284092 | 303074


Range status and errors

Selected range

Filename C:\EACRip\BACH - THE SACRED MASTERWORKS (Bach Collegium Japan, Masaaki Suzuki)\CD1 - St John Passion 1\Bach - St. John Passion (Johannes-Passion) (Disc 1) - Masaaki Suzuki.wav

Peak level 100.0 %
Extraction speed 6.6 X
Range quality 100.0 %
Test CRC B31259A7
Copy CRC B31259A7
Copy OK

No errors occurred


AccurateRip summary

Track 1 accurately ripped (confidence 49) [56843133] (AR v2)
Track 2 accurately ripped (confidence 49) [D21EA158] (AR v2)
Track 3 accurately ripped (confidence 49) [58CE0A18] (AR v2)
Track 4 accurately ripped (confidence 49) [4EE75E0B] (AR v2)
Track 5 accurately ripped (confidence 49) [06D96FED] (AR v2)
Track 6 accurately ripped (confidence 49) [A918AC8F] (AR v2)
Track 7 accurately ripped (confidence 49) [7034C1AE] (AR v2)
Track 8 accurately ripped (confidence 49) [E333D101] (AR v2)
Track 9 accurately ripped (confidence 49) [713220D4] (AR v2)
Track 10 accurately ripped (confidence 49) [067140AE] (AR v2)
Track 11 accurately ripped (confidence 49) [0CD6DBE0] (AR v2)
Track 12 accurately ripped (confidence 49) [97CDD3CF] (AR v2)
Track 13 accurately ripped (confidence 49) [8AA791C7] (AR v2)
Track 14 accurately ripped (confidence 49) [8E2328B2] (AR v2)
Track 15 accurately ripped (confidence 49) [4E6B6AB4] (AR v2)
Track 16 accurately ripped (confidence 49) [94472945] (AR v2)
Track 17 accurately ripped (confidence 49) [08F9E300] (AR v2)
Track 18 accurately ripped (confidence 49) [2589B8A3] (AR v2)
Track 19 accurately ripped (confidence 49) [6EDB46C0] (AR v2)
Track 20 accurately ripped (confidence 49) [73A806C2] (AR v2)
Track 21 accurately ripped (confidence 49) [A5648A9C] (AR v2)
Track 22 accurately ripped (confidence 49) [72B8649C] (AR v2)
Track 23 accurately ripped (confidence 48) [D59095EB] (AR v2)
Track 24 accurately ripped (confidence 49) [9999982E] (AR v2)

All tracks accurately ripped

End of status report

–– CUETools DB Plugin V2.1.6

[CTDB TOCID: cynZcvcXWpyZcrrhqlce.ovtI6Q-] found
Submit result: cynZcvcXWpyZcrrhqlce.ovtI6Q- has been confirmed
Track | CTDB Status
1 | (98/99) Accurately ripped
2 | (98/99) Accurately ripped
3 | (98/99) Accurately ripped
4 | (99/99) Accurately ripped
5 | (99/99) Accurately ripped
6 | (99/99) Accurately ripped
7 | (99/99) Accurately ripped
8 | (99/99) Accurately ripped
9 | (99/99) Accurately ripped
10 | (99/99) Accurately ripped
11 | (99/99) Accurately ripped
12 | (99/99) Accurately ripped
13 | (99/99) Accurately ripped
14 | (99/99) Accurately ripped
15 | (99/99) Accurately ripped
16 | (99/99) Accurately ripped
17 | (99/99) Accurately ripped
18 | (99/99) Accurately ripped
19 | (98/99) Accurately ripped
20 | (98/99) Accurately ripped
21 | (99/99) Accurately ripped
22 | (99/99) Accurately ripped
23 | (99/99) Accurately ripped
24 | (97/99) Accurately ripped


==== Log checksum E95A8A82A03FB5548E3EF64D2F15B4FA42C15AD71EA5A3145E4BE841063D7F3A ====


Exact Audio Copy V1.3 from 2. September 2016

EAC extraction logfile from 30. January 2019, 19:00

Gerd Türk, Chiyuki Urano, Ingrid Schmithüsen, Yoshikazu Mera, Makoto Sakurada, Peter Kooij; Masaaki Suzuki / Bach - St. John Passion (Johannes-Passion) (Disc 2)

Used drive : ATAPI iHAS124 F Adapter: 1 ID: 0

Read mode : Secure
Utilize accurate stream : Yes
Defeat audio cache : Yes
Make use of C2 pointers : No

Read offset correction : 6
Overread into Lead-In and Lead-Out : No
Fill up missing offset samples with silence : Yes
Delete leading and trailing silent blocks : No
Null samples used in CRC calculations : Yes
Used interface : Native Win32 interface for Win NT & 2000

Used output format : User Defined Encoder
Selected bitrate : 1024 kBit/s
Quality : High
Add ID3 tag : No
Command line compressor : C:\Program Files (x86)\Exact Audio Copy\FLAC\FLAC.EXE
Additional command line options : -6 -V -T "ARTIST=%artist%" -T "TITLE=%title%" -T "ALBUM=%albumtitle%" -T "DATE=%year%" -T "TRACKNUMBER=%tracknr%" -T "GENRE=%genre%" -T "COMMENT=%comment%" -T "BAND=%albuminterpret%" -T "ALBUMARTIST=%albuminterpret%" -T "COMPOSER=%composer%" %haslyrics%–tag-from-file=LYRICS="%lyricsfile%"%haslyrics% -T "DISCNUMBER=%cdnumber%" -T "TOTALDISCS=%totalcds%" -T "TOTALTRACKS=%numtracks%" %hascover%–picture="%coverfile%"%hascover% %source% -o %dest%


TOC of the extracted CD

Track | Start | Length | Start sector | End sector
––––––––––––––––––––––––––––-
1 | 0:00.00 | 2:20.07 | 0 | 10506
2 | 2:20.07 | 0:58.30 | 10507 | 14886
3 | 3:18.37 | 3:55.13 | 14887 | 32524
4 | 7:13.50 | 1:01.02 | 32525 | 37101
5 | 8:14.52 | 1:27.23 | 37102 | 43649
6 | 9:42.00 | 6:09.15 | 43650 | 71339
7 | 15:51.15 | 0:30.27 | 71340 | 73616
8 | 16:21.42 | 4:28.63 | 73617 | 93779
9 | 20:50.30 | 0:30.57 | 93780 | 96086
10 | 21:21.12 | 0:47.63 | 96087 | 99674
11 | 22:09.00 | 6:51.00 | 99675 | 130499
12 | 29:00.00 | 2:17.50 | 130500 | 140824
13 | 31:17.50 | 0:58.25 | 140825 | 145199
14 | 32:16.00 | 2:13.22 | 145200 | 155196
15 | 34:29.22 | 7:04.30 | 155197 | 187026
16 | 41:33.52 | 2:09.23 | 187027 | 196724
17 | 43:43.00 | 3:50.00 | 196725 | 213974
18 | 47:33.00 | 5:31.10 | 213975 | 238809
19 | 53:04.10 | 5:45.65 | 238810 | 264749


Range status and errors

Selected range

Filename C:\EACRip\BACH - THE SACRED MASTERWORKS (Bach Collegium Japan, Masaaki Suzuki)\CD2 - St John Passion 2\Bach - St. John Passion (Johannes-Passion) (Disc 2) - Masaaki Suzuki.wav

Peak level 100.0 %
Extraction speed 5.8 X
Range quality 100.0 %
Test CRC E4CB47C2
Copy CRC E4CB47C2
Copy OK

No errors occurred


AccurateRip summary

Track 1 accurately ripped (confidence 46) [C7E37C35] (AR v2)
Track 2 accurately ripped (confidence 46) [1DD803A4] (AR v2)
Track 3 accurately ripped (confidence 46) [80B0D0F8] (AR v2)
Track 4 accurately ripped (confidence 46) [FDD62C57] (AR v2)
Track 5 accurately ripped (confidence 46) [41852562] (AR v2)
Track 6 accurately ripped (confidence 46) [39CC0E3E] (AR v2)
Track 7 accurately ripped (confidence 46) [DAAE0EAC] (AR v2)
Track 8 accurately ripped (confidence 46) [09E983B1] (AR v2)
Track 9 accurately ripped (confidence 46) [16524E54] (AR v2)
Track 10 accurately ripped (confidence 46) [7469159C] (AR v2)
Track 11 accurately ripped (confidence 46) [79364949] (AR v2)
Track 12 accurately ripped (confidence 46) [2B4CE2BD] (AR v2)
Track 13 accurately ripped (confidence 46) [4B616E63] (AR v2)
Track 14 accurately ripped (confidence 46) [5EFDE505] (AR v2)
Track 15 accurately ripped (confidence 46) [BC12D817] (AR v2)
Track 16 accurately ripped (confidence 46) [6F5E0F23] (AR v2)
Track 17 accurately ripped (confidence 45) [3C90E119] (AR v2)
Track 18 accurately ripped (confidence 45) [9C568C1A] (AR v2)
Track 19 accurately ripped (confidence 45) [54E3E75C] (AR v2)

All tracks accurately ripped

End of status report

–– CUETools DB Plugin V2.1.6

[CTDB TOCID: Ffd6mlP7Nbu.aOMuhkKTqX8hra4-] found
Submit result: Ffd6mlP7Nbu.aOMuhkKTqX8hra4- has been confirmed
Track | CTDB Status
1 | (92/92) Accurately ripped
2 | (92/92) Accurately ripped
3 | (92/92) Accurately ripped
4 | (92/92) Accurately ripped
5 | (92/92) Accurately ripped
6 | (91/92) Accurately ripped
7 | (92/92) Accurately ripped
8 | (91/92) Accurately ripped
9 | (92/92) Accurately ripped
10 | (92/92) Accurately ripped
11 | (91/92) Accurately ripped
12 | (91/92) Accurately ripped
13 | (92/92) Accurately ripped
14 | (92/92) Accurately ripped
15 | (92/92) Accurately ripped
16 | (92/92) Accurately ripped
17 | (92/92) Accurately ripped
18 | (92/92) Accurately ripped
19 | (91/92) Accurately ripped


==== Log checksum 31B3D89F6A6567A28F0E947E386780487D1762A256BA7D7D2DF3B8417028D330 ====


Exact Audio Copy V1.3 from 2. September 2016

EAC extraction logfile from 30. January 2019, 20:28

Gerd Türk, Peter Kooij, Nancy Argenta, Robin Blaze, Makoto Sakurada, Chiyuki Urano / Bach - St. Matthew Passion (Matthaus-Passion) (Disc 1)

Used drive : ATAPI iHAS124 F Adapter: 1 ID: 0

Read mode : Secure
Utilize accurate stream : Yes
Defeat audio cache : Yes
Make use of C2 pointers : No

Read offset correction : 6
Overread into Lead-In and Lead-Out : No
Fill up missing offset samples with silence : Yes
Delete leading and trailing silent blocks : No
Null samples used in CRC calculations : Yes
Used interface : Native Win32 interface for Win NT & 2000

Used output format : User Defined Encoder
Selected bitrate : 1024 kBit/s
Quality : High
Add ID3 tag : No
Command line compressor : C:\Program Files (x86)\Exact Audio Copy\FLAC\FLAC.EXE
Additional command line options : -6 -V -T "ARTIST=%artist%" -T "TITLE=%title%" -T "ALBUM=%albumtitle%" -T "DATE=%year%" -T "TRACKNUMBER=%tracknr%" -T "GENRE=%genre%" -T "COMMENT=%comment%" -T "BAND=%albuminterpret%" -T "ALBUMARTIST=%albuminterpret%" -T "COMPOSER=%composer%" %haslyrics%–tag-from-file=LYRICS="%lyricsfile%"%haslyrics% -T "DISCNUMBER=%cdnumber%" -T "TOTALDISCS=%totalcds%" -T "TOTALTRACKS=%numtracks%" %hascover%–picture="%coverfile%"%hascover% %source% -o %dest%


TOC of the extracted CD

Track | Start | Length | Start sector | End sector
––––––––––––––––––––––––––––-
1 | 0:00.00 | 8:07.00 | 0 | 36524
2 | 8:07.00 | 0:40.00 | 36525 | 39524
3 | 8:47.00 | 0:44.12 | 39525 | 42836
4 | 9:31.12 | 0:26.25 | 42837 | 44811
5 | 9:57.37 | 0:15.00 | 44812 | 45936
6 | 10:12.37 | 0:31.23 | 45937 | 48284
7 | 10:43.60 | 0:28.57 | 48285 | 50441
8 | 11:12.42 | 1:23.33 | 50442 | 56699
9 | 12:36.00 | 0:59.50 | 56700 | 61174
10 | 13:35.50 | 3:57.00 | 61175 | 78949
11 | 17:32.50 | 0:36.00 | 78950 | 81649
12 | 18:08.50 | 4:45.25 | 81650 | 103049
13 | 22:54.00 | 0:14.40 | 103050 | 104139
14 | 23:08.40 | 0:24.17 | 104140 | 105956
15 | 23:32.57 | 1:13.55 | 105957 | 111486
16 | 24:46.37 | 0:13.00 | 111487 | 112461
17 | 24:59.37 | 0:11.50 | 112462 | 113336
18 | 25:11.12 | 0:43.63 | 113337 | 116624
19 | 25:55.00 | 2:53.00 | 116625 | 129599
20 | 28:48.00 | 1:14.20 | 129600 | 135169
21 | 30:02.20 | 3:15.55 | 135170 | 149849
22 | 33:18.00 | 1:07.00 | 149850 | 154874
23 | 34:25.00 | 1:04.37 | 154875 | 159711
24 | 35:29.37 | 1:03.23 | 159712 | 164459
25 | 36:32.60 | 0:57.27 | 164460 | 168761
26 | 37:30.12 | 1:51.63 | 168762 | 177149
27 | 39:22.00 | 1:40.00 | 177150 | 184649
28 | 41:02.00 | 4:55.22 | 184650 | 206796
29 | 45:57.22 | 0:44.28 | 206797 | 210124
30 | 46:41.50 | 1:01.37 | 210125 | 214736
31 | 47:43.12 | 3:47.25 | 214737 | 231786
32 | 51:30.37 | 1:19.60 | 231787 | 237771
33 | 52:50.22 | 0:58.53 | 237772 | 242174
34 | 53:49.00 | 2:30.50 | 242175 | 253474
35 | 56:19.50 | 3:47.40 | 253475 | 270539
36 | 60:07.15 | 1:04.35 | 270540 | 275374
37 | 61:11.50 | 2:12.25 | 275375 | 285299
38 | 63:24.00 | 6:11.00 | 285300 | 313124


Range status and errors

Selected range

Filename C:\EACRip\BACH - THE SACRED MASTERWORKS (Bach Collegium Japan, Masaaki Suzuki)\CD3 - St Matthew Passion 1\Bach - St Matthew Passion (Matthaus-Passion) (Disc 1) - Masaaki Suzuki.wav

Peak level 100.0 %
Extraction speed 8.9 X
Range quality 100.0 %
Test CRC 2CFD27CB
Copy CRC 2CFD27CB
Copy OK

No errors occurred


AccurateRip summary

Track 1 accurately ripped (confidence 57) [CA714159] (AR v2)
Track 2 accurately ripped (confidence 57) [5DAD2D5F] (AR v2)
Track 3 accurately ripped (confidence 56) [5AF3B0C6] (AR v2)
Track 4 accurately ripped (confidence 55) [2E09E0C4] (AR v2)
Track 5 accurately ripped (confidence 57) [BE4E341E] (AR v2)
Track 6 accurately ripped (confidence 57) [24D5ABE0] (AR v2)
Track 7 accurately ripped (confidence 56) [069B45E4] (AR v2)
Track 8 accurately ripped (confidence 56) [6F854FE5] (AR v2)
Track 9 accurately ripped (confidence 57) [DA96EEF0] (AR v2)
Track 10 accurately ripped (confidence 56) [3F7B2830] (AR v2)
Track 11 accurately ripped (confidence 57) [60310577] (AR v2)
Track 12 accurately ripped (confidence 57) [6028DCBF] (AR v2)
Track 13 accurately ripped (confidence 57) [54533CDE] (AR v2)
Track 14 accurately ripped (confidence 56) [E94EC4ED] (AR v2)
Track 15 accurately ripped (confidence 57) [F78DDCAC] (AR v2)
Track 16 accurately ripped (confidence 56) [31B6423A] (AR v2)
Track 17 accurately ripped (confidence 57) [78648329] (AR v2)
Track 18 accurately ripped (confidence 56) [15838A7C] (AR v2)
Track 19 accurately ripped (confidence 57) [94EA699B] (AR v2)
Track 20 accurately ripped (confidence 58) [6675E605] (AR v2)
Track 21 accurately ripped (confidence 56) [1973F9B6] (AR v2)
Track 22 accurately ripped (confidence 57) [07E2DE89] (AR v2)
Track 23 accurately ripped (confidence 57) [360C2B86] (AR v2)
Track 24 accurately ripped (confidence 56) [6BB4A131] (AR v2)
Track 25 accurately ripped (confidence 56) [6DC2B084] (AR v2)
Track 26 accurately ripped (confidence 56) [61904C43] (AR v2)
Track 27 accurately ripped (confidence 56) [D56AED24] (AR v2)
Track 28 accurately ripped (confidence 56) [AD6E159F] (AR v2)
Track 29 accurately ripped (confidence 57) [B0F5FA2F] (AR v2)
Track 30 accurately ripped (confidence 57) [26CFCD64] (AR v2)
Track 31 accurately ripped (confidence 56) [9B4FE753] (AR v2)
Track 32 accurately ripped (confidence 57) [CD8E6AEC] (AR v2)
Track 33 accurately ripped (confidence 57) [8FE6FF2E] (AR v2)
Track 34 accurately ripped (confidence 57) [48CB6C6C] (AR v2)
Track 35 accurately ripped (confidence 56) [0F29158A] (AR v2)
Track 36 accurately ripped (confidence 57) [C6446161] (AR v2)
Track 37 accurately ripped (confidence 57) [522919BB] (AR v2)
Track 38 accurately ripped (confidence 56) [8B0B218D] (AR v2)

All tracks accurately ripped

End of status report

–– CUETools DB Plugin V2.1.6

[CTDB TOCID: v91B1AuVswPg3LEihhb.zgWHJOA-] found
Submit result: v91B1AuVswPg3LEihhb.zgWHJOA- has been confirmed
Track | CTDB Status
1 | ( 84/106) Accurately ripped
2 | ( 84/106) Accurately ripped
3 | ( 84/106) Accurately ripped
4 | ( 85/106) Accurately ripped
5 | ( 86/106) Accurately ripped
6 | ( 86/106) Accurately ripped
7 | ( 86/106) Accurately ripped
8 | ( 86/106) Accurately ripped
9 | ( 86/106) Accurately ripped
10 | ( 86/106) Accurately ripped
11 | ( 86/106) Accurately ripped
12 | ( 83/106) Accurately ripped
13 | ( 85/106) Accurately ripped
14 | ( 84/106) Accurately ripped
15 | ( 84/106) Accurately ripped
16 | ( 85/106) Accurately ripped
17 | (103/106) Accurately ripped
18 | ( 84/106) Accurately ripped
19 | ( 84/106) Accurately ripped
20 | ( 86/106) Accurately ripped
21 | ( 85/106) Accurately ripped
22 | ( 86/106) Accurately ripped
23 | ( 86/106) Accurately ripped
24 | ( 86/106) Accurately ripped
25 | ( 86/106) Accurately ripped
26 | ( 86/106) Accurately ripped
27 | ( 85/106) Accurately ripped
28 | ( 84/106) Accurately ripped
29 | ( 84/106) Accurately ripped
30 | ( 84/106) Accurately ripped
31 | ( 83/106) Accurately ripped
32 | ( 83/106) Accurately ripped
33 | ( 83/106) Accurately ripped
34 | ( 84/106) Accurately ripped
35 | ( 86/106) Accurately ripped
36 | ( 85/106) Accurately ripped
37 | ( 85/106) Accurately ripped
38 | ( 82/106) Accurately ripped


==== Log checksum 6DA625C27F49427FADACC51BFA011FB050F6527ECCCABB048C5536BF1F87C90A ====


Exact Audio Copy V1.3 from 2. September 2016

EAC extraction logfile from 31. January 2019, 1:47

Gerd Türk, Peter Kooij, Nancy Argenta, Robin Blaze, Makoto Sakurada, Chiyuki Urano; Masaaki Suzuki / Bach - St. Matthew Passion (Matthaus-Passion) (Disc 2)

Used drive : ATAPI iHAS124 F Adapter: 1 ID: 0

Read mode : Secure
Utilize accurate stream : Yes
Defeat audio cache : Yes
Make use of C2 pointers : No

Read offset correction : 6
Overread into Lead-In and Lead-Out : No
Fill up missing offset samples with silence : Yes
Delete leading and trailing silent blocks : No
Null samples used in CRC calculations : Yes
Used interface : Native Win32 interface for Win NT & 2000

Used output format : User Defined Encoder
Selected bitrate : 1024 kBit/s
Quality : High
Add ID3 tag : No
Command line compressor : C:\Program Files (x86)\Exact Audio Copy\FLAC\FLAC.EXE
Additional command line options : -6 -V -T "ARTIST=%artist%" -T "TITLE=%title%" -T "ALBUM=%albumtitle%" -T "DATE=%year%" -T "TRACKNUMBER=%tracknr%" -T "GENRE=%genre%" -T "COMMENT=%comment%" -T "BAND=%albuminterpret%" -T "ALBUMARTIST=%albuminterpret%" -T "COMPOSER=%composer%" %haslyrics%–tag-from-file=LYRICS="%lyricsfile%"%haslyrics% -T "DISCNUMBER=%cdnumber%" -T "TOTALDISCS=%totalcds%" -T "TOTALTRACKS=%numtracks%" %hascover%–picture="%coverfile%"%hascover% %source% -o %dest%


TOC of the extracted CD

Track | Start | Length | Start sector | End sector
––––––––––––––––––––––––––––-
1 | 0:00.00 | 3:40.00 | 0 | 16499
2 | 3:40.00 | 1:05.05 | 16500 | 21379
3 | 4:45.05 | 0:40.07 | 21380 | 24386
4 | 5:25.12 | 1:10.55 | 24387 | 29691
5 | 6:35.67 | 1:01.08 | 29692 | 34274
6 | 7:37.00 | 3:34.00 | 34275 | 50324
7 | 11:11.00 | 1:13.07 | 50325 | 55806
8 | 12:24.07 | 0:11.25 | 55807 | 56656
9 | 12:35.32 | 0:14.40 | 56657 | 57746
10 | 12:49.72 | 0:21.08 | 57747 | 59329
11 | 13:11.05 | 0:40.70 | 59330 | 62399
12 | 13:52.00 | 0:57.72 | 62400 | 66746
13 | 14:49.72 | 0:11.28 | 66747 | 67599
14 | 15:01.25 | 1:24.50 | 67600 | 73949
15 | 16:26.00 | 6:10.00 | 73950 | 101699
16 | 22:36.00 | 1:05.00 | 101700 | 106574
17 | 23:41.00 | 1:07.42 | 106575 | 111641
18 | 24:48.42 | 0:08.18 | 111642 | 112259
19 | 24:56.60 | 0:42.15 | 112260 | 115424
20 | 25:39.00 | 2:54.00 | 115425 | 128474
21 | 28:33.00 | 2:19.00 | 128475 | 138899
22 | 30:52.00 | 0:59.37 | 138900 | 143361
23 | 31:51.37 | 2:02.30 | 143362 | 152541
24 | 33:53.67 | 0:18.00 | 152542 | 153891
25 | 34:11.67 | 0:38.68 | 153892 | 156809
26 | 34:50.60 | 0:15.65 | 156810 | 157999
27 | 35:06.50 | 1:12.25 | 158000 | 163424
28 | 36:19.00 | 5:23.20 | 163425 | 187669
29 | 41:42.20 | 0:05.45 | 187670 | 188089
30 | 41:47.65 | 0:16.70 | 188090 | 189359
31 | 42:04.60 | 0:24.47 | 189360 | 191206
32 | 42:29.32 | 0:38.20 | 191207 | 194076
33 | 43:07.52 | 0:22.18 | 194077 | 195744
34 | 43:29.70 | 1:00.50 | 195745 | 200294
35 | 44:30.45 | 5:42.30 | 200295 | 225974
36 | 50:13.00 | 0:42.57 | 225975 | 229181
37 | 50:55.57 | 0:12.63 | 229182 | 230144
38 | 51:08.45 | 0:16.12 | 230145 | 231356
39 | 51:24.57 | 2:25.18 | 231357 | 242249


Range status and errors

Selected range

Filename C:\EACRip\BACH - THE SACRED MASTERWORKS (Bach Collegium Japan, Masaaki Suzuki)\CD4 - St Matthew Passion 2\Bach - St Matthew Passion (Matthaus-Passion) (Disc 2) - Masaaki Suzuki.wav

Peak level 100.0 %
Extraction speed 8.2 X
Range quality 99.9 %
Test CRC 8F1D58AE
Copy CRC 8F1D58AE
Copy OK

No errors occurred


AccurateRip summary

Track 1 accurately ripped (confidence 53) [A056C660] (AR v2)
Track 2 accurately ripped (confidence 53) [88A40293] (AR v2)
Track 3 accurately ripped (confidence 54) [40C513FF] (AR v2)
Track 4 accurately ripped (confidence 53) [AC1AF5CB] (AR v2)
Track 5 accurately ripped (confidence 53) [729293C8] (AR v2)
Track 6 accurately ripped (confidence 54) [6ADAF133] (AR v2)
Track 7 accurately ripped (confidence 53) [A3695DCF] (AR v2)
Track 8 accurately ripped (confidence 54) [7717A72D] (AR v2)
Track 9 accurately ripped (confidence 54) [5911D97D] (AR v2)
Track 10 accurately ripped (confidence 53) [F6A728FE] (AR v2)
Track 11 accurately ripped (confidence 54) [771BB98B] (AR v2)
Track 12 accurately ripped (confidence 54) [BA29F3FB] (AR v2)
Track 13 accurately ripped (confidence 53) [213B4791] (AR v2)
Track 14 accurately ripped (confidence 53) [012193B9] (AR v2)
Track 15 accurately ripped (confidence 53) [DEDA6DD8] (AR v2)
Track 16 accurately ripped (confidence 54) [396B0CB4] (AR v2)
Track 17 accurately ripped (confidence 54) [A9584A24] (AR v2)
Track 18 accurately ripped (confidence 54) [5F317FC2] (AR v2)
Track 19 accurately ripped (confidence 53) [0306BE41] (AR v2)
Track 20 accurately ripped (confidence 53) [6830D417] (AR v2)
Track 21 accurately ripped (confidence 53) [A0A03642] (AR v2)
Track 22 accurately ripped (confidence 54) [B6294C11] (AR v2)
Track 23 accurately ripped (confidence 54) [1E07C782] (AR v2)
Track 24 accurately ripped (confidence 54) [9A00D0F0] (AR v2)
Track 25 accurately ripped (confidence 53) [765F7F2C] (AR v2)
Track 26 accurately ripped (confidence 54) [139DD43A] (AR v2)
Track 27 accurately ripped (confidence 53) [6E4E55F8] (AR v2)
Track 28 accurately ripped (confidence 53) [6B1EC03B] (AR v2)
Track 29 accurately ripped (confidence 29) [0CD0DA18] (AR v2)
Track 30 accurately ripped (confidence 54) [B819D01A] (AR v2)
Track 31 accurately ripped (confidence 54) [6DDC2A83] (AR v2)
Track 32 accurately ripped (confidence 54) [162B312F] (AR v2)
Track 33 accurately ripped (confidence 54) [9FC8BFA9] (AR v2)
Track 34 accurately ripped (confidence 53) [60E85C4C] (AR v2)
Track 35 accurately ripped (confidence 53) [6C5BECA5] (AR v2)
Track 36 accurately ripped (confidence 53) [889CC185] (AR v2)
Track 37 accurately ripped (confidence 54) [E6A3A3D6] (AR v2)
Track 38 accurately ripped (confidence 54) [121573FC] (AR v2)
Track 39 accurately ripped (confidence 53) [A698C1B9] (AR v2)

All tracks accurately ripped

End of status report

–– CUETools DB Plugin V2.1.6

[CTDB TOCID: mnGAjSniaBOQVVLwzHeIxsmAhkw-] found
Submit result: mnGAjSniaBOQVVLwzHeIxsmAhkw- has been confirmed
Track | CTDB Status
1 | ( 88/106) Accurately ripped
2 | ( 89/106) Accurately ripped
3 | ( 89/106) Accurately ripped
4 | ( 89/106) Accurately ripped
5 | ( 89/106) Accurately ripped
6 | ( 87/106) Accurately ripped
7 | ( 87/106) Accurately ripped
8 | ( 87/106) Accurately ripped
9 | ( 88/106) Accurately ripped
10 | ( 88/106) Accurately ripped
11 | ( 87/106) Accurately ripped
12 | ( 87/106) Accurately ripped
13 | ( 89/106) Accurately ripped
14 | ( 88/106) Accurately ripped
15 | ( 88/106) Accurately ripped
16 | ( 89/106) Accurately ripped
17 | ( 89/106) Accurately ripped
18 | ( 89/106) Accurately ripped
19 | ( 89/106) Accurately ripped
20 | ( 87/106) Accurately ripped
21 | ( 87/106) Accurately ripped
22 | ( 87/106) Accurately ripped
23 | ( 87/106) Accurately ripped
24 | ( 87/106) Accurately ripped
25 | ( 87/106) Accurately ripped
26 | ( 88/106) Accurately ripped
27 | ( 87/106) Accurately ripped
28 | ( 87/106) Accurately ripped
29 | ( 89/106) Accurately ripped
30 | ( 89/106) Accurately ripped
31 | ( 88/106) Accurately ripped
32 | ( 88/106) Accurately ripped
33 | ( 89/106) Accurately ripped
34 | ( 89/106) Accurately ripped
35 | ( 87/106) Accurately ripped
36 | ( 88/106) Accurately ripped
37 | ( 88/106) Accurately ripped
38 | ( 89/106) Accurately ripped
39 | ( 87/106) Accurately ripped


==== Log checksum 395EA8CF24D33B69D79598B6A8B5684FA54BBCFC58FC4E5F985AC7933D4177B6 ====


Exact Audio Copy V1.3 from 2. September 2016

EAC extraction logfile from 31. January 2019, 2:49

Gerd Türk, Peter Kooij, Nancy Argenta, Robin Blaze, Makoto Sakurada, Chiyuki Urano; Masaaki Suzuki / Bach - St. Matthew Passion (Matthaus-Passion) (Disc 3)

Used drive : ATAPI iHAS124 F Adapter: 1 ID: 0

Read mode : Secure
Utilize accurate stream : Yes
Defeat audio cache : Yes
Make use of C2 pointers : No

Read offset correction : 6
Overread into Lead-In and Lead-Out : No
Fill up missing offset samples with silence : Yes
Delete leading and trailing silent blocks : No
Null samples used in CRC calculations : Yes
Used interface : Native Win32 interface for Win NT & 2000

Used output format : User Defined Encoder
Selected bitrate : 1024 kBit/s
Quality : High
Add ID3 tag : No
Command line compressor : C:\Program Files (x86)\Exact Audio Copy\FLAC\FLAC.EXE
Additional command line options : -6 -V -T "ARTIST=%artist%" -T "TITLE=%title%" -T "ALBUM=%albumtitle%" -T "DATE=%year%" -T "TRACKNUMBER=%tracknr%" -T "GENRE=%genre%" -T "COMMENT=%comment%" -T "BAND=%albuminterpret%" -T "ALBUMARTIST=%albuminterpret%" -T "COMPOSER=%composer%" %haslyrics%–tag-from-file=LYRICS="%lyricsfile%"%haslyrics% -T "DISCNUMBER=%cdnumber%" -T "TOTALDISCS=%totalcds%" -T "TOTALTRACKS=%numtracks%" %hascover%–picture="%coverfile%"%hascover% %source% -o %dest%


TOC of the extracted CD

Track | Start | Length | Start sector | End sector
––––––––––––––––––––––––––––-
1 | 0:00.00 | 1:00.00 | 0 | 4499
2 | 1:00.00 | 0:40.00 | 4500 | 7499
3 | 1:40.00 | 6:18.00 | 7500 | 35849
4 | 7:58.00 | 2:00.20 | 35850 | 44869
5 | 9:58.20 | 0:26.62 | 44870 | 46881
6 | 10:25.07 | 0:08.43 | 46882 | 47524
7 | 10:33.50 | 0:47.52 | 47525 | 51101
8 | 11:21.27 | 0:15.48 | 51102 | 52274
9 | 11:37.00 | 1:41.00 | 52275 | 59849
10 | 13:18.00 | 3:01.00 | 59850 | 73424
11 | 16:19.00 | 1:38.12 | 73425 | 80786
12 | 17:57.12 | 0:04.10 | 80787 | 81096
13 | 18:01.22 | 0:15.65 | 81097 | 82286
14 | 18:17.12 | 0:07.48 | 82287 | 82859
15 | 18:24.60 | 0:26.15 | 82860 | 84824
16 | 18:51.00 | 1:26.00 | 84825 | 91274
17 | 20:17.00 | 1:11.15 | 91275 | 96614
18 | 21:28.15 | 0:21.45 | 96615 | 98234
19 | 21:49.60 | 1:15.15 | 98235 | 103874
20 | 23:05.00 | 2:00.00 | 103875 | 112874
21 | 25:05.00 | 6:12.00 | 112875 | 140774
22 | 31:17.00 | 1:04.42 | 140775 | 145616
23 | 32:21.42 | 0:53.13 | 145617 | 149604
24 | 33:14.55 | 0:37.20 | 149605 | 152399
25 | 33:52.00 | 1:51.37 | 152400 | 160761
26 | 35:43.37 | 6:28.38 | 160762 | 189899


Range status and errors

Selected range

Filename C:\EACRip\BACH - THE SACRED MASTERWORKS (Bach Collegium Japan, Masaaki Suzuki)\CD5 - St Matthew Passion 3\Bach - St Matthew Passion (Matthaus-Passion) (Disc 3) - Masaaki Suzuki.wav

Peak level 100.0 %
Extraction speed 7.9 X
Range quality 100.0 %
Test CRC 41701376
Copy CRC 41701376
Copy OK

No errors occurred


AccurateRip summary

Track 1 accurately ripped (confidence 60) [ECD739B7] (AR v2)
Track 2 accurately ripped (confidence 60) [05112C51] (AR v2)
Track 3 accurately ripped (confidence 60) [FAE53646] (AR v2)
Track 4 accurately ripped (confidence 60) [633CCAAE] (AR v2)
Track 5 accurately ripped (confidence 59) [7A70A3E4] (AR v2)
Track 6 accurately ripped (confidence 61) [944EA643] (AR v2)
Track 7 accurately ripped (confidence 59) [B5F02F8A] (AR v2)
Track 8 accurately ripped (confidence 59) [5F853560] (AR v2)
Track 9 accurately ripped (confidence 60) [99781DA9] (AR v2)
Track 10 accurately ripped (confidence 59) [2E9970C6] (AR v2)
Track 11 accurately ripped (confidence 61) [B20B16D8] (AR v2)
Track 12 accurately ripped (confidence 31) [01F69AC7] (AR v2)
Track 13 cannot be verified as accurate (confidence 60) [85E9F2E7], AccurateRip returned [1E344EF5] (AR v2)
Track 14 accurately ripped (confidence 61) [A8F0E130] (AR v2)
Track 15 accurately ripped (confidence 60) [25EE6533] (AR v2)
Track 16 accurately ripped (confidence 61) [7211FBEB] (AR v2)
Track 17 accurately ripped (confidence 59) [65C723CC] (AR v2)
Track 18 accurately ripped (confidence 61) [5F6D320A] (AR v2)
Track 19 accurately ripped (confidence 60) [EDA37BB9] (AR v2)
Track 20 accurately ripped (confidence 60) [5ED23B30] (AR v2)
Track 21 accurately ripped (confidence 59) [686937A2] (AR v2)
Track 22 accurately ripped (confidence 60) [216C69C2] (AR v2)
Track 23 accurately ripped (confidence 60) [76420CFA] (AR v2)
Track 24 accurately ripped (confidence 59) [2802C36A] (AR v2)
Track 25 accurately ripped (confidence 59) [E52E457C] (AR v2)
Track 26 accurately ripped (confidence 60) [283C2C2D] (AR v2)

25 track(s) accurately ripped
1 track(s) could not be verified as accurate

Some tracks could not be verified as accurate

End of status report

–– CUETools DB Plugin V2.1.6

[CTDB TOCID: y3XmfLtFakx1dWEo4vbvG4vT0Dw-] found
Submit result: y3XmfLtFakx1dWEo4vbvG4vT0Dw- has been confirmed
Track | CTDB Status
1 | (90/91) Accurately ripped
2 | (90/91) Accurately ripped
3 | (90/91) Accurately ripped
4 | (88/91) Accurately ripped
5 | (88/91) Accurately ripped
6 | (89/91) Accurately ripped
7 | (88/91) Accurately ripped
8 | (89/91) Accurately ripped
9 | (88/91) Accurately ripped
10 | (88/91) Accurately ripped
11 | (90/91) Accurately ripped
12 | (90/91) Accurately ripped
13 | (90/91) Accurately ripped
14 | (90/91) Accurately ripped
15 | (90/91) Accurately ripped
16 | (90/91) Accurately ripped
17 | (89/91) Accurately ripped
18 | (90/91) Accurately ripped
19 | (89/91) Accurately ripped
20 | (90/91) Accurately ripped
21 | (88/91) Accurately ripped
22 | (88/91) Accurately ripped
23 | (88/91) Accurately ripped
24 | (88/91) Accurately ripped
25 | (88/91) Accurately ripped
26 | (88/91) Accurately ripped


==== Log checksum 4156F6B2F4C88A75D0CC4F89597D9C5055C9FEB237A5FBC8A40728C6367FFCE2 ====


Exact Audio Copy V1.3 from 2. September 2016

EAC extraction logfile from 31. January 2019, 14:10

Carolyn Sampson, Rachel Nicholls, Robin Blaze, Gerd Turk, Peter Kooij; Masaaki Suzuki / Bach - Mass in B minor (Disc 1)

Used drive : ATAPI iHAS124 F Adapter: 1 ID: 0

Read mode : Secure
Utilize accurate stream : Yes
Defeat audio cache : Yes
Make use of C2 pointers : No

Read offset correction : 6
Overread into Lead-In and Lead-Out : No
Fill up missing offset samples with silence : Yes
Delete leading and trailing silent blocks : No
Null samples used in CRC calculations : Yes
Used interface : Native Win32 interface for Win NT & 2000

Used output format : User Defined Encoder
Selected bitrate : 1024 kBit/s
Quality : High
Add ID3 tag : No
Command line compressor : C:\Program Files (x86)\Exact Audio Copy\FLAC\FLAC.EXE
Additional command line options : -6 -V -T "ARTIST=%artist%" -T "TITLE=%title%" -T "ALBUM=%albumtitle%" -T "DATE=%year%" -T "TRACKNUMBER=%tracknr%" -T "GENRE=%genre%" -T "COMMENT=%comment%" -T "BAND=%albuminterpret%" -T "ALBUMARTIST=%albuminterpret%" -T "COMPOSER=%composer%" %haslyrics%–tag-from-file=LYRICS="%lyricsfile%"%haslyrics% -T "DISCNUMBER=%cdnumber%" -T "TOTALDISCS=%totalcds%" -T "TOTALTRACKS=%numtracks%" %hascover%–picture="%coverfile%"%hascover% %source% -o %dest%


TOC of the extracted CD

Track | Start | Length | Start sector | End sector
––––––––––––––––––––––––––––-
1 | 0:00.00 | 10:39.13 | 0 | 47937
2 | 10:39.13 | 4:49.41 | 47938 | 69653
3 | 15:28.54 | 3:13.13 | 69654 | 84141
4 | 18:41.67 | 1:41.73 | 84142 | 91789
5 | 20:23.65 | 4:56.15 | 91790 | 114004
6 | 25:20.05 | 4:03.72 | 114005 | 132301
7 | 29:24.02 | 3:15.61 | 132302 | 146987
8 | 32:39.63 | 5:08.70 | 146988 | 170157
9 | 37:48.58 | 3:05.44 | 170158 | 184076
10 | 40:54.27 | 4:24.25 | 184077 | 203901
11 | 45:18.52 | 4:19.04 | 203902 | 223330
12 | 49:37.56 | 4:20.19 | 223331 | 242849


Range status and errors

Selected range

Filename C:\EACRip\BACH - THE SACRED MASTERWORKS (Bach Collegium Japan, Masaaki Suzuki)\CD6 - Mass in B minor 1\Bach - Mass in B minor (Disc 1) - Masaaki Suzuki.wav

Peak level 100.0 %
Extraction speed 8.2 X
Range quality 99.9 %
Test CRC 61629816
Copy CRC 61629816
Copy OK

No errors occurred


AccurateRip summary

Track 1 accurately ripped (confidence 33) [D7BF75F9] (AR v2)
Track 2 accurately ripped (confidence 33) [79CA21BD] (AR v2)
Track 3 accurately ripped (confidence 33) [03171632] (AR v2)
Track 4 accurately ripped (confidence 33) [AF364216] (AR v2)
Track 5 accurately ripped (confidence 33) [E4EDD2F7] (AR v2)
Track 6 accurately ripped (confidence 33) [92ABB766] (AR v2)
Track 7 accurately ripped (confidence 33) [B90F81B3] (AR v2)
Track 8 accurately ripped (confidence 33) [DAFB2A93] (AR v2)
Track 9 accurately ripped (confidence 33) [9315454F] (AR v2)
Track 10 accurately ripped (confidence 33) [5BFFFC60] (AR v2)
Track 11 accurately ripped (confidence 33) [8C4B14F0] (AR v2)
Track 12 accurately ripped (confidence 32) [0129AE12] (AR v2)

All tracks accurately ripped

End of status report

–– CUETools DB Plugin V2.1.6

[CTDB TOCID: KzOK_xFdlrsG5.4vXYW6jpWuNZs-] found
Submit result: KzOK_xFdlrsG5.4vXYW6jpWuNZs- has been confirmed
Track | CTDB Status
1 | (103/104) Accurately ripped
2 | (103/104) Accurately ripped
3 | (103/104) Accurately ripped
4 | (103/104) Accurately ripped
5 | (103/104) Accurately ripped
6 | (103/104) Accurately ripped
7 | (103/104) Accurately ripped
8 | (103/104) Accurately ripped
9 | (103/104) Accurately ripped
10 | (103/104) Accurately ripped
11 | (103/104) Accurately ripped
12 | (101/104) Accurately ripped


==== Log checksum 1E6C3C83B97281C5E2AD3034120E6DC4D0A2A383AB3891D3E4FB7553670FDA01 ====


Exact Audio Copy V1.3 from 2. September 2016

EAC extraction logfile from 31. January 2019, 15:41

Carolyn Sampson, Rachel Nicholls, Robin Blaze, Gerd Turk, Peter Kooij; Masaaki Suzuki / Bach - Mass in B minor (Disc 2)

Used drive : ATAPI iHAS124 F Adapter: 1 ID: 0

Read mode : Secure
Utilize accurate stream : Yes
Defeat audio cache : Yes
Make use of C2 pointers : No

Read offset correction : 6
Overread into Lead-In and Lead-Out : No
Fill up missing offset samples with silence : Yes
Delete leading and trailing silent blocks : No
Null samples used in CRC calculations : Yes
Used interface : Native Win32 interface for Win NT & 2000

Used output format : User Defined Encoder
Selected bitrate : 1024 kBit/s
Quality : High
Add ID3 tag : No
Command line compressor : C:\Program Files (x86)\Exact Audio Copy\FLAC\FLAC.EXE
Additional command line options : -6 -V -T "ARTIST=%artist%" -T "TITLE=%title%" -T "ALBUM=%albumtitle%" -T "DATE=%year%" -T "TRACKNUMBER=%tracknr%" -T "GENRE=%genre%" -T "COMMENT=%comment%" -T "BAND=%albuminterpret%" -T "ALBUMARTIST=%albuminterpret%" -T "COMPOSER=%composer%" %haslyrics%–tag-from-file=LYRICS="%lyricsfile%"%haslyrics% -T "DISCNUMBER=%cdnumber%" -T "TOTALDISCS=%totalcds%" -T "TOTALTRACKS=%numtracks%" %hascover%–picture="%coverfile%"%hascover% %source% -o %dest%


TOC of the extracted CD

Track | Start | Length | Start sector | End sector
––––––––––––––––––––––––––––-
1 | 0:00.00 | 1:47.54 | 0 | 8078
2 | 1:47.54 | 1:57.01 | 8079 | 16854
3 | 3:44.55 | 4:20.71 | 16855 | 36425
4 | 8:05.51 | 3:37.33 | 36426 | 52733
5 | 11:43.09 | 3:17.19 | 52734 | 67527
6 | 15:00.28 | 3:54.28 | 67528 | 85105
7 | 18:54.56 | 4:49.63 | 85106 | 106843
8 | 23:44.44 | 3:55.05 | 106844 | 124473
9 | 27:39.49 | 2:06.19 | 124474 | 133942
10 | 29:45.68 | 5:52.45 | 133943 | 160387
11 | 35:38.38 | 2:37.11 | 160388 | 172173
12 | 38:15.49 | 4:05.39 | 172174 | 190587
13 | 42:21.13 | 2:40.17 | 190588 | 202604
14 | 45:01.30 | 5:19.34 | 202605 | 226563
15 | 50:20.64 | 4:12.11 | 226564 | 245474


Range status and errors

Selected range

Filename C:\EACRip\BACH - THE SACRED MASTERWORKS (Bach Collegium Japan, Masaaki Suzuki)\CD7 - Mass in B minor 2\Bach - Mass in B minor (Disc 2) - Masaaki Suzuki.wav

Peak level 99.8 %
Extraction speed 8.4 X
Range quality 100.0 %
Test CRC 8D5EA13E
Copy CRC 8D5EA13E
Copy OK

No errors occurred


AccurateRip summary

Track 1 accurately ripped (confidence 31) [1A65528B] (AR v2)
Track 2 accurately ripped (confidence 31) [38DE5319] (AR v2)
Track 3 accurately ripped (confidence 31) [F51677A9] (AR v2)
Track 4 accurately ripped (confidence 31) [A3D84287] (AR v2)
Track 5 accurately ripped (confidence 31) [CE5845C6] (AR v2)
Track 6 accurately ripped (confidence 31) [2B68BE57] (AR v2)
Track 7 accurately ripped (confidence 31) [C766BFD5] (AR v2)
Track 8 accurately ripped (confidence 31) [B672EFCF] (AR v2)
Track 9 accurately ripped (confidence 31) [C809D519] (AR v2)
Track 10 accurately ripped (confidence 31) [8504CCF1] (AR v2)
Track 11 accurately ripped (confidence 31) [013F48C3] (AR v2)
Track 12 accurately ripped (confidence 32) [5AA9A04F] (AR v2)
Track 13 accurately ripped (confidence 32) [760E8EF5] (AR v2)
Track 14 accurately ripped (confidence 32) [0F3610B1] (AR v2)
Track 15 accurately ripped (confidence 31) [FACABDDD] (AR v2)

All tracks accurately ripped

End of status report

–– CUETools DB Plugin V2.1.6

[CTDB TOCID: ZoERIKj2e1FjrCJ1FD8paW3KEwg-] found
Submit result: ZoERIKj2e1FjrCJ1FD8paW3KEwg- has been confirmed
Track | CTDB Status
1 | (110/110) Accurately ripped
2 | (110/110) Accurately ripped
3 | (110/110) Accurately ripped
4 | (110/110) Accurately ripped
5 | (110/110) Accurately ripped
6 | (110/110) Accurately ripped
7 | (110/110) Accurately ripped
8 | (110/110) Accurately ripped
9 | (110/110) Accurately ripped
10 | (110/110) Accurately ripped
11 | (109/110) Accurately ripped
12 | (110/110) Accurately ripped
13 | (110/110) Accurately ripped
14 | (110/110) Accurately ripped
15 | (109/110) Accurately ripped


==== Log checksum 10677521990E12476B274B605438787D51F65561629C93FB996F75894AE62A3B ====


Exact Audio Copy V1.3 from 2. September 2016

EAC extraction logfile from 31. January 2019, 18:27

Monika Frimmer, Yoshikazu Mera, Gerd Türk, Peter Kooij; Masaaki Suzuki / Bach - Christmas Oratorio (Weihnachtsoratorium) (Disc 1)

Used drive : ATAPI iHAS124 F Adapter: 1 ID: 0

Read mode : Secure
Utilize accurate stream : Yes
Defeat audio cache : Yes
Make use of C2 pointers : No

Read offset correction : 6
Overread into Lead-In and Lead-Out : No
Fill up missing offset samples with silence : Yes
Delete leading and trailing silent blocks : No
Null samples used in CRC calculations : Yes
Used interface : Native Win32 interface for Win NT & 2000

Used output format : User Defined Encoder
Selected bitrate : 1024 kBit/s
Quality : High
Add ID3 tag : No
Command line compressor : C:\Program Files (x86)\Exact Audio Copy\FLAC\FLAC.EXE
Additional command line options : -6 -V -T "ARTIST=%artist%" -T "TITLE=%title%" -T "ALBUM=%albumtitle%" -T "DATE=%year%" -T "TRACKNUMBER=%tracknr%" -T "GENRE=%genre%" -T "COMMENT=%comment%" -T "BAND=%albuminterpret%" -T "ALBUMARTIST=%albuminterpret%" -T "COMPOSER=%composer%" %haslyrics%–tag-from-file=LYRICS="%lyricsfile%"%haslyrics% -T "DISCNUMBER=%cdnumber%" -T "TOTALDISCS=%totalcds%" -T "TOTALTRACKS=%numtracks%" %hascover%–picture="%coverfile%"%hascover% %source% -o %dest%


TOC of the extracted CD

Track | Start | Length | Start sector | End sector
––––––––––––––––––––––––––––-
1 | 0:00.00 | 7:37.00 | 0 | 34274
2 | 7:37.00 | 1:15.20 | 34275 | 39919
3 | 8:52.20 | 0:54.47 | 39920 | 44016
4 | 9:46.67 | 5:05.08 | 44017 | 66899
5 | 14:52.00 | 1:05.37 | 66900 | 71811
6 | 15:57.37 | 0:24.58 | 71812 | 73669
7 | 16:22.20 | 2:48.10 | 73670 | 86279
8 | 19:10.30 | 4:30.45 | 86280 | 106574
9 | 23:41.00 | 1:29.57 | 106575 | 113306
10 | 25:10.57 | 5:46.18 | 113307 | 139274
11 | 30:57.00 | 0:43.60 | 139275 | 142559
12 | 31:40.60 | 1:00.15 | 142560 | 147074
13 | 32:41.00 | 0:43.00 | 147075 | 150299
14 | 33:24.00 | 0:40.50 | 150300 | 153349
15 | 34:04.50 | 3:38.00 | 153350 | 169699
16 | 37:42.50 | 0:21.25 | 169700 | 171299
17 | 38:04.00 | 0:39.50 | 171300 | 174274
18 | 38:43.50 | 0:59.25 | 174275 | 178724
19 | 39:43.00 | 9:35.00 | 178725 | 221849
20 | 49:18.00 | 0:15.30 | 221850 | 223004
21 | 49:33.30 | 2:23.67 | 223005 | 233796
22 | 51:57.22 | 0:26.05 | 233797 | 235751
23 | 52:23.27 | 1:29.23 | 235752 | 242449
24 | 53:52.50 | 1:45.25 | 242450 | 250349
25 | 55:38.00 | 0:11.15 | 250350 | 251189
26 | 55:49.15 | 0:40.50 | 251190 | 254239
27 | 56:29.65 | 0:38.60 | 254240 | 257149
28 | 57:08.50 | 0:41.60 | 257150 | 260284
29 | 57:50.35 | 7:34.45 | 260285 | 294379
30 | 65:25.05 | 1:11.32 | 294380 | 299736
31 | 66:36.37 | 4:53.50 | 299737 | 321761
32 | 71:30.12 | 0:25.13 | 321762 | 323649
33 | 71:55.25 | 0:52.12 | 323650 | 327561
34 | 72:47.37 | 0:25.45 | 327562 | 329481
35 | 73:13.07 | 0:43.30 | 329482 | 332736
36 | 73:56.37 | 2:41.38 | 332737 | 344849


Range status and errors

Selected range

Filename C:\EACRip\BACH - THE SACRED MASTERWORKS (Bach Collegium Japan, Masaaki Suzuki)\CD8 - Christmas Oratorio 1\Bach - Christmas Oratorio (Weihnachtsoratorium) (Disc 1) - Masaaki Suzuki.wav

Peak level 100.0 %
Extraction speed 9.6 X
Range quality 99.9 %
Test CRC A637961A
Copy CRC A637961A
Copy OK

No errors occurred


AccurateRip summary

Track 1 accurately ripped (confidence 56) [97592E7A] (AR v2)
Track 2 accurately ripped (confidence 55) [8D8339BF] (AR v2)
Track 3 accurately ripped (confidence 56) [075A0DE9] (AR v2)
Track 4 accurately ripped (confidence 55) [39CA307B] (AR v2)
Track 5 accurately ripped (confidence 55) [354F8911] (AR v2)
Track 6 accurately ripped (confidence 56) [8C03F028] (AR v2)
Track 7 accurately ripped (confidence 55) [DE022F18] (AR v2)
Track 8 accurately ripped (confidence 56) [B9204B2A] (AR v2)
Track 9 accurately ripped (confidence 56) [38426B09] (AR v2)
Track 10 accurately ripped (confidence 55) [DC3560C6] (AR v2)
Track 11 accurately ripped (confidence 55) [378597F1] (AR v2)
Track 12 accurately ripped (confidence 55) [F82FEA57] (AR v2)
Track 13 accurately ripped (confidence 55) [CDF32A5C] (AR v2)
Track 14 accurately ripped (confidence 55) [4CEC7690] (AR v2)
Track 15 accurately ripped (confidence 55) [BCE9B786] (AR v2)
Track 16 accurately ripped (confidence 55) [7447DE8F] (AR v2)
Track 17 accurately ripped (confidence 55) [85271C6C] (AR v2)
Track 18 accurately ripped (confidence 55) [09A45D8E] (AR v2)
Track 19 accurately ripped (confidence 54) [EF1A490A] (AR v2)
Track 20 accurately ripped (confidence 55) [8D4FA69F] (AR v2)
Track 21 accurately ripped (confidence 54) [C298FA92] (AR v2)
Track 22 accurately ripped (confidence 55) [519419DF] (AR v2)
Track 23 accurately ripped (confidence 55) [DE7121F7] (AR v2)
Track 24 accurately ripped (confidence 54) [CBE2E364] (AR v2)
Track 25 accurately ripped (confidence 56) [466C590C] (AR v2)
Track 26 accurately ripped (confidence 55) [173C4965] (AR v2)
Track 27 accurately ripped (confidence 55) [14EB997C] (AR v2)
Track 28 accurately ripped (confidence 54) [29B77716] (AR v2)
Track 29 accurately ripped (confidence 55) [B2BD6E3E] (AR v2)
Track 30 accurately ripped (confidence 55) [B92CB013] (AR v2)
Track 31 accurately ripped (confidence 56) [1E3F172A] (AR v2)
Track 32 accurately ripped (confidence 55) [D41AC565] (AR v2)
Track 33 accurately ripped (confidence 55) [478AD1C6] (AR v2)
Track 34 accurately ripped (confidence 55) [98CC78F8] (AR v2)
Track 35 accurately ripped (confidence 55) [1486A0D3] (AR v2)
Track 36 accurately ripped (confidence 53) [A4DB2337] (AR v2)

All tracks accurately ripped

End of status report

–– CUETools DB Plugin V2.1.6

[CTDB TOCID: VdNbmUYJvmD8HzjILN7he8HlOWg-] found
Submit result: VdNbmUYJvmD8HzjILN7he8HlOWg- has been confirmed
Track | CTDB Status
1 | (67/67) Accurately ripped
2 | (67/67) Accurately ripped
3 | (67/67) Accurately ripped
4 | (67/67) Accurately ripped
5 | (67/67) Accurately ripped
6 | (67/67) Accurately ripped
7 | (67/67) Accurately ripped
8 | (67/67) Accurately ripped
9 | (67/67) Accurately ripped
10 | (67/67) Accurately ripped
11 | (67/67) Accurately ripped
12 | (67/67) Accurately ripped
13 | (67/67) Accurately ripped
14 | (67/67) Accurately ripped
15 | (67/67) Accurately ripped
16 | (67/67) Accurately ripped
17 | (67/67) Accurately ripped
18 | (67/67) Accurately ripped
19 | (67/67) Accurately ripped
20 | (67/67) Accurately ripped
21 | (67/67) Accurately ripped
22 | (67/67) Accurately ripped
23 | (67/67) Accurately ripped
24 | (67/67) Accurately ripped
25 | (67/67) Accurately ripped
26 | (67/67) Accurately ripped
27 | (67/67) Accurately ripped
28 | (67/67) Accurately ripped
29 | (67/67) Accurately ripped
30 | (67/67) Accurately ripped
31 | (67/67) Accurately ripped
32 | (67/67) Accurately ripped
33 | (67/67) Accurately ripped
34 | (67/67) Accurately ripped
35 | (67/67) Accurately ripped
36 | (65/67) Accurately ripped


==== Log checksum 4E73AE279B8EFF2DE1D9DFD8D0EDAC04F17A7C42E1D88539CF3C43A360EA83DD ====


Exact Audio Copy V1.3 from 2. September 2016

EAC extraction logfile from 31. January 2019, 21:14

Monika Frimmer, Yoshikazu Mera, Gerd Türk, Peter Kooij; Masaaki Suzuki / Bach - Christmas Oratorio (Weihnachtsoratorium) (Disc 2)

Used drive : ATAPI iHAS124 F Adapter: 1 ID: 0

Read mode : Secure
Utilize accurate stream : Yes
Defeat audio cache : Yes
Make use of C2 pointers : No

Read offset correction : 6
Overread into Lead-In and Lead-Out : No
Fill up missing offset samples with silence : Yes
Delete leading and trailing silent blocks : No
Null samples used in CRC calculations : Yes
Used interface : Native Win32 interface for Win NT & 2000

Used output format : User Defined Encoder
Selected bitrate : 1024 kBit/s
Quality : High
Add ID3 tag : No
Command line compressor : C:\Program Files (x86)\Exact Audio Copy\FLAC\FLAC.EXE
Additional command line options : -6 -V -T "ARTIST=%artist%" -T "TITLE=%title%" -T "ALBUM=%albumtitle%" -T "DATE=%year%" -T "TRACKNUMBER=%tracknr%" -T "GENRE=%genre%" -T "COMMENT=%comment%" -T "BAND=%albuminterpret%" -T "ALBUMARTIST=%albuminterpret%" -T "COMPOSER=%composer%" %haslyrics%–tag-from-file=LYRICS="%lyricsfile%"%haslyrics% -T "DISCNUMBER=%cdnumber%" -T "TOTALDISCS=%totalcds%" -T "TOTALTRACKS=%numtracks%" %hascover%–picture="%coverfile%"%hascover% %source% -o %dest%


TOC of the extracted CD

Track | Start | Length | Start sector | End sector
––––––––––––––––––––––––––––-
1 | 0:00.00 | 5:31.00 | 0 | 24824
2 | 5:31.00 | 0:35.00 | 24825 | 27449
3 | 6:06.00 | 2:24.00 | 27450 | 38249
4 | 8:30.00 | 5:25.00 | 38250 | 62624
5 | 13:55.00 | 1:26.00 | 62625 | 69074
6 | 15:21.00 | 4:29.52 | 69075 | 89301
7 | 19:50.52 | 1:56.23 | 89302 | 98024
8 | 21:47.00 | 6:36.00 | 98025 | 127724
9 | 28:23.00 | 0:23.67 | 127725 | 129516
10 | 28:46.67 | 1:46.68 | 129517 | 137534
11 | 30:33.60 | 0:46.15 | 137535 | 140999
12 | 31:20.00 | 4:12.00 | 141000 | 159899
13 | 35:32.00 | 0:15.05 | 159900 | 161029
14 | 35:47.05 | 0:35.17 | 161030 | 163671
15 | 36:22.22 | 1:25.15 | 163672 | 170061
16 | 37:47.37 | 5:19.38 | 170062 | 194024
17 | 43:07.00 | 0:31.30 | 194025 | 196379
18 | 43:38.30 | 1:11.45 | 196380 | 201749
19 | 44:50.00 | 4:38.00 | 201750 | 222599
20 | 49:28.00 | 0:46.50 | 222600 | 226099
21 | 50:14.50 | 0:50.37 | 226100 | 229886
22 | 51:05.12 | 3:48.63 | 229887 | 247049
23 | 54:54.00 | 1:14.50 | 247050 | 252649
24 | 56:08.50 | 1:02.25 | 252650 | 257324
25 | 57:11.00 | 0:24.42 | 257325 | 259166
26 | 57:35.42 | 1:52.33 | 259167 | 267599
27 | 59:28.00 | 4:03.00 | 267600 | 285824
28 | 63:31.00 | 0:39.30 | 285825 | 288779
29 | 64:10.30 | 4:01.45 | 288780 | 306899


Range status and errors

Selected range

Filename C:\EACRip\BACH - THE SACRED MASTERWORKS (Bach Collegium Japan, Masaaki Suzuki)\CD9 - Christmas Oratorio 2\Bach - Christmas Oratorio (Weihnachtsoratorium) (Disc 2) - Masaaki Suzuki.wav

Peak level 100.0 %
Extraction speed 9.5 X
Range quality 100.0 %
Test CRC 6684D2AD
Copy CRC 6684D2AD
Copy OK

No errors occurred


AccurateRip summary

Track 1 accurately ripped (confidence 55) [FB49FB57] (AR v2)
Track 2 accurately ripped (confidence 56) [45EC10DF] (AR v2)
Track 3 accurately ripped (confidence 56) [575ED805] (AR v2)
Track 4 accurately ripped (confidence 55) [E8F6E125] (AR v2)
Track 5 accurately ripped (confidence 56) [44F81DC0] (AR v2)
Track 6 accurately ripped (confidence 55) [E48EE82A] (AR v2)
Track 7 accurately ripped (confidence 56) [F19655D7] (AR v2)
Track 8 accurately ripped (confidence 55) [FB9BF20C] (AR v2)
Track 9 accurately ripped (confidence 54) [99CCA3DD] (AR v2)
Track 10 accurately ripped (confidence 54) [64C3C21C] (AR v2)
Track 11 accurately ripped (confidence 55) [41292968] (AR v2)
Track 12 accurately ripped (confidence 57) [6D495870] (AR v2)
Track 13 accurately ripped (confidence 56) [44DC15C6] (AR v2)
Track 14 accurately ripped (confidence 56) [2ADBBDEF] (AR v2)
Track 15 accurately ripped (confidence 56) [2E7864EC] (AR v2)
Track 16 accurately ripped (confidence 55) [454E914D] (AR v2)
Track 17 accurately ripped (confidence 55) [CF999E20] (AR v2)
Track 18 accurately ripped (confidence 56) [B87DB564] (AR v2)
Track 19 accurately ripped (confidence 56) [97DE31FC] (AR v2)
Track 20 accurately ripped (confidence 56) [EED650DE] (AR v2)
Track 21 accurately ripped (confidence 56) [9640094E] (AR v2)
Track 22 accurately ripped (confidence 56) [2684B8B6] (AR v2)
Track 23 accurately ripped (confidence 56) [557BBF2E] (AR v2)
Track 24 accurately ripped (confidence 56) [D1C6214D] (AR v2)
Track 25 accurately ripped (confidence 56) [C654A168] (AR v2)
Track 26 accurately ripped (confidence 56) [B0EA91EC] (AR v2)
Track 27 accurately ripped (confidence 54) [DB3FE04C] (AR v2)
Track 28 accurately ripped (confidence 55) [81C4C477] (AR v2)
Track 29 accurately ripped (confidence 53) [9E45F5D0] (AR v2)

All tracks accurately ripped

End of status report

–– CUETools DB Plugin V2.1.6

[CTDB TOCID: frsUZg4hYL7nr1xf0M4lofqO_js-] found
Submit result: frsUZg4hYL7nr1xf0M4lofqO_js- has been confirmed
Track | CTDB Status
1 | (71/72) Accurately ripped
2 | (72/72) Accurately ripped
3 | (72/72) Accurately ripped
4 | (72/72) Accurately ripped
5 | (72/72) Accurately ripped
6 | (72/72) Accurately ripped
7 | (72/72) Accurately ripped
8 | (72/72) Accurately ripped
9 | (72/72) Accurately ripped
10 | (72/72) Accurately ripped
11 | (72/72) Accurately ripped
12 | (72/72) Accurately ripped
13 | (72/72) Accurately ripped
14 | (72/72) Accurately ripped
15 | (72/72) Accurately ripped
16 | (72/72) Accurately ripped
17 | (72/72) Accurately ripped
18 | (72/72) Accurately ripped
19 | (72/72) Accurately ripped
20 | (72/72) Accurately ripped
21 | (72/72) Accurately ripped
22 | (72/72) Accurately ripped
23 | (72/72) Accurately ripped
24 | (72/72) Accurately ripped
25 | (72/72) Accurately ripped
26 | (72/72) Accurately ripped
27 | (72/72) Accurately ripped
28 | (72/72) Accurately ripped
29 | (71/72) Accurately ripped


==== Log checksum 9378CC9EC05ABB48FE4CC5A9EC578169B2E7C773C8B648A2D8DD4DD6C082EEE7 ====


Exact Audio Copy V1.3 from 2. September 2016

EAC extraction logfile from 31. January 2019, 22:19

Yukari Nonoshita, Patrick van Goethem, Jan Kobow, Chiyuki Urano; Masaaki Suzuki / Bach - Easter Oratorio. Ascension Oratorio

Used drive : ATAPI iHAS124 F Adapter: 1 ID: 0

Read mode : Secure
Utilize accurate stream : Yes
Defeat audio cache : Yes
Make use of C2 pointers : No

Read offset correction : 6
Overread into Lead-In and Lead-Out : No
Fill up missing offset samples with silence : Yes
Delete leading and trailing silent blocks : No
Null samples used in CRC calculations : Yes
Used interface : Native Win32 interface for Win NT & 2000

Used output format : User Defined Encoder
Selected bitrate : 1024 kBit/s
Quality : High
Add ID3 tag : No
Command line compressor : C:\Program Files (x86)\Exact Audio Copy\FLAC\FLAC.EXE
Additional command line options : -6 -V -T "ARTIST=%artist%" -T "TITLE=%title%" -T "ALBUM=%albumtitle%" -T "DATE=%year%" -T "TRACKNUMBER=%tracknr%" -T "GENRE=%genre%" -T "COMMENT=%comment%" -T "BAND=%albuminterpret%" -T "ALBUMARTIST=%albuminterpret%" -T "COMPOSER=%composer%" %haslyrics%–tag-from-file=LYRICS="%lyricsfile%"%haslyrics% -T "DISCNUMBER=%cdnumber%" -T "TOTALDISCS=%totalcds%" -T "TOTALTRACKS=%numtracks%" %hascover%–picture="%coverfile%"%hascover% %source% -o %dest%


TOC of the extracted CD

Track | Start | Length | Start sector | End sector
––––––––––––––––––––––––––––-
1 | 0:00.00 | 4:09.68 | 0 | 18742
2 | 4:09.68 | 3:28.45 | 18743 | 34387
3 | 7:38.38 | 4:59.19 | 34388 | 56831
4 | 12:37.57 | 0:58.02 | 56832 | 61183
5 | 13:35.59 | 11:28.07 | 61184 | 112790
6 | 25:03.66 | 0:42.45 | 112791 | 115985
7 | 25:46.36 | 6:17.55 | 115986 | 144315
8 | 32:04.16 | 0:55.40 | 144316 | 148480
9 | 32:59.56 | 5:55.69 | 148481 | 175174
10 | 38:55.50 | 0:35.27 | 175175 | 177826
11 | 39:31.02 | 2:32.19 | 177827 | 189245
12 | 42:03.21 | 4:39.11 | 189246 | 210181
13 | 46:42.32 | 0:30.54 | 210182 | 212485
14 | 47:13.11 | 1:02.48 | 212486 | 217183
15 | 48:15.59 | 7:14.50 | 217184 | 249783
16 | 55:30.34 | 0:28.20 | 249784 | 251903
17 | 55:58.54 | 1:10.46 | 251904 | 257199
18 | 57:09.25 | 2:12.27 | 257200 | 267126
19 | 59:21.52 | 6:27.68 | 267127 | 296219
20 | 65:49.45 | 4:36.46 | 296220 | 316965


Range status and errors

Selected range

Filename C:\EACRip\BACH - THE SACRED MASTERWORKS (Bach Collegium Japan, Masaaki Suzuki)\CD10 - Easter & Ascension\Bach - Easter Oratorio. Ascension Oratorio - Masaaki Suzuki.wav

Peak level 98.6 %
Extraction speed 9.6 X
Range quality 100.0 %
Test CRC 04E45840
Copy CRC 04E45840
Copy OK

No errors occurred


AccurateRip summary

Track 1 accurately ripped (confidence 37) [30E5E5B6] (AR v2)
Track 2 accurately ripped (confidence 37) [C6C9F812] (AR v2)
Track 3 accurately ripped (confidence 37) [AD7D8A1F] (AR v2)
Track 4 accurately ripped (confidence 37) [99CCA33E] (AR v2)
Track 5 accurately ripped (confidence 37) [525BC2ED] (AR v2)
Track 6 accurately ripped (confidence 37) [F1E11BE1] (AR v2)
Track 7 accurately ripped (confidence 37) [09C663FE] (AR v2)
Track 8 accurately ripped (confidence 37) [E60A3B2A] (AR v2)
Track 9 accurately ripped (confidence 37) [7E3E1FE4] (AR v2)
Track 10 accurately ripped (confidence 37) [D5E4BEA1] (AR v2)
Track 11 accurately ripped (confidence 37) [C7BB3157] (AR v2)
Track 12 accurately ripped (confidence 37) [877B245A] (AR v2)
Track 13 accurately ripped (confidence 37) [D277C0C9] (AR v2)
Track 14 accurately ripped (confidence 37) [370F6739] (AR v2)
Track 15 accurately ripped (confidence 37) [14161C8C] (AR v2)
Track 16 accurately ripped (confidence 37) [963E1F2F] (AR v2)
Track 17 accurately ripped (confidence 37) [676F4991] (AR v2)
Track 18 accurately ripped (confidence 37) [47C02965] (AR v2)
Track 19 accurately ripped (confidence 37) [3314EAA9] (AR v2)
Track 20 accurately ripped (confidence 36) [6B0703E1] (AR v2)

All tracks accurately ripped

End of status report

–– CUETools DB Plugin V2.1.6

[CTDB TOCID: z7.LNZVBFkDwF4YREhrKSL4ghBo-] found
Submit result: z7.LNZVBFkDwF4YREhrKSL4ghBo- has been confirmed
Track | CTDB Status
1 | (69/69) Accurately ripped
2 | (69/69) Accurately ripped
3 | (69/69) Accurately ripped
4 | (69/69) Accurately ripped
5 | (69/69) Accurately ripped
6 | (69/69) Accurately ripped
7 | (69/69) Accurately ripped
8 | (69/69) Accurately ripped
9 | (69/69) Accurately ripped
10 | (69/69) Accurately ripped
11 | (69/69) Accurately ripped
12 | (69/69) Accurately ripped
13 | (69/69) Accurately ripped
14 | (69/69) Accurately ripped
15 | (69/69) Accurately ripped
16 | (69/69) Accurately ripped
17 | (69/69) Accurately ripped
18 | (69/69) Accurately ripped
19 | (69/69) Accurately ripped
20 | (69/69) Accurately ripped


==== Log checksum 268ED5F78CEE033958C45C318A8BEB3D8429CBEE8AF7AEF10C5FAB1D84D7CD85 ====

Thanks to the original releaser