Tags
Language
Tags

Christian Thielemann, Staatskapelle Dresden - Mascagni: Cavalleria Rusticana & Leoncavallo: Pagliacci (2016) [BDRip]

Posted By: Vilboa
Christian Thielemann, Staatskapelle Dresden - Mascagni: Cavalleria Rusticana & Leoncavallo: Pagliacci (2016) [BDRip]

Christian Thielemann, Staatskapelle Dresden - Mascagni: Cavalleria Rusticana & Leoncavallo: Pagliacci (2016) [BDRip]
BluRay-rip | AVC | MKV 1920x1080 / 6215 kbps / 29,97 fps | 161 min | 8,74 Gb
Audio: Italiano / DTS / 6ch / 48.0 KHz / 24 bits
Classical | Sony | Sub: Italiano, English, Deutsch, Francais, Espanol, Chinese, Korean

As comparably short operas Cavalleria rusticana and Pagliacci are often billed together, but seldom is the lead tenor making his double role debut as Turiddu and Canio on the same evening. At the 2015 Salzburg Easter Festival Jonas Kaufmann did just that – to rapturous praise. Universally hailed as a coup for Kaufmann, plaudits were also showered on Philipp Stölzl for his innovative compartmentalized staging which included live video projections while referencing the era of black-and-white movies.

Cast:
Pietro Mascagni "Cavalleria Rusticana":
Turiddu - Jonas Kaufmann
Santuzza - Liudmyla Monastyrska
Lucia - Stefania Toczyska
Alfio - Ambrogio Maestri
Lola - Annalisa Stroppa

Ruggero Leoncavallo "Pagliacci":
Canio - Jonas Kaufmann
Nedda - Maria Agresta
Tonio - Dimitri Platanias
Beppe - Tansel Akzeybek
Silvio - Alessio Arduini
Sachsischer Staatsopernchor
Staatskapelle Dresden
Conductor - Christian Thielemann


General
Unique ID : 228985169749755680011755743123919772280 (0xAC44F084A7D9ED1EAD49F6105FFA9A78)
Complete name : C:\CAVALLERIA RUSTICANA PAGLIACCI.mkv
Format : Matroska
Format version : Version 2
File size : 8.75 GiB
Duration : 2h 41mn
Overall bit rate : 7 765 Kbps
Movie name : CAVALLERIA RUSTICANA PAGLIACCI
Encoded date : UTC 2021-02-28 06:52:08
Writing application : DVDFab 9.1.6.8
Writing library : libebml v0.7.8 + libmatroska v0.8.1

Video
ID : 1
Format : AVC
Format/Info : Advanced Video Codec
Format profile : High@L4.1
Format settings, CABAC : Yes
Format settings, ReFrames : 2 frames
Codec ID : V_MPEG4/ISO/AVC
Duration : 2h 41mn
Bit rate : 6 215 Kbps
Width : 1 920 pixels
Height : 1 080 pixels
Display aspect ratio : 16:9
Frame rate mode : Constant
Frame rate : 29.970 fps
Color space : YUV
Chroma subsampling : 4:2:0
Bit depth : 8 bits
Scan type : Progressive
Bits/(Pixel*Frame) : 0.100
Stream size : 6.87 GiB (79%)
Writing library : x264 core 142
Encoding settings : cabac=1 / ref=1 / deblock=1:-1:-1 / analyse=0x3:0 / me=hex / subme=5 / psy=0 / mixed_ref=0 / me_range=16 / chroma_me=1 / trellis=0 / 8x8dct=1 / cqm=0 / deadzone=21,11 / fast_pskip=1 / chroma_qp_offset=0 / threads=8 / lookahead_threads=2 / sliced_threads=0 / nr=0 / decimate=1 / interlaced=0 / bluray_compat=0 / constrained_intra=0 / bframes=2 / b_pyramid=0 / b_adapt=1 / b_bias=0 / direct=1 / weightb=1 / open_gop=0 / weightp=0 / keyint=24 / keyint_min=13 / scenecut=40 / intra_refresh=0 / rc=abr / mbtree=0 / bitrate=6215 / ratetol=1.0 / qcomp=0.60 / qpmin=0 / qpmax=69 / qpstep=4 / ip_ratio=1.40 / pb_ratio=1.30 / aq=1:1.00
Default : Yes
Forced : No
Color primaries : BT.709
Transfer characteristics : BT.709
Matrix coefficients : BT.709
Color range : Limited

Audio
ID : 2
Format : DTS
Format/Info : Digital Theater Systems
Mode : 16
Format settings, Endianness : Big
Codec ID : A_DTS
Duration : 2h 41mn
Bit rate mode : Constant
Bit rate : 1 509 Kbps
Channel(s) : 5 channels
Channel positions : Front: L C R, Side: L R
Sampling rate : 48.0 KHz
Bit depth : 24 bits
Compression mode : Lossy
Stream size : 1.70 GiB (19%)
Language : Italian
Default : Yes
Forced : No

Text #1
ID : 3
Format : VobSub
Codec ID : S_VOBSUB
Codec ID/Info : The same subtitle format used on DVDs
Language : Italian
Default : Yes
Forced : No

Text #2
ID : 4
Format : VobSub
Codec ID : S_VOBSUB
Codec ID/Info : The same subtitle format used on DVDs
Language : English
Default : No
Forced : No

Text #3
ID : 5
Format : VobSub
Codec ID : S_VOBSUB
Codec ID/Info : The same subtitle format used on DVDs
Language : German
Default : No
Forced : No

Text #4
ID : 6
Format : VobSub
Codec ID : S_VOBSUB
Codec ID/Info : The same subtitle format used on DVDs
Language : French
Default : No
Forced : No

Text #5
ID : 7
Format : VobSub
Codec ID : S_VOBSUB
Codec ID/Info : The same subtitle format used on DVDs
Language : Spanish
Default : No
Forced : No

Text #6
ID : 8
Format : VobSub
Codec ID : S_VOBSUB
Codec ID/Info : The same subtitle format used on DVDs
Language : Chinese
Default : No
Forced : No

Text #7
ID : 9
Format : VobSub
Codec ID : S_VOBSUB
Codec ID/Info : The same subtitle format used on DVDs
Language : Korean
Default : No
Forced : No

Menu
00:00:00.000 : en:Chapter 01
00:01:46.773 : en:Chapter 02
00:04:09.415 : en:Chapter 03
00:09:18.958 : en:Chapter 04
00:11:51.811 : en:Chapter 05
00:16:22.147 : en:Chapter 06
00:20:04.169 : en:Chapter 07
00:22:53.338 : en:Chapter 08
00:30:04.169 : en:Chapter 09
00:35:38.769 : en:Chapter 10
00:42:00.217 : en:Chapter 11
00:47:30.948 : en:Chapter 12
00:52:46.563 : en:Chapter 13
00:56:15.572 : en:Chapter 14
00:58:56.666 : en:Chapter 15
01:01:22.011 : en:Chapter 16
01:06:12.668 : en:Chapter 17
01:11:55.644 : en:Chapter 18
01:14:34.570 : en:Chapter 19
01:15:31.860 : en:Chapter 20
01:18:06.782 : en:Chapter 21
01:23:09.818 : en:Chapter 22
01:26:26.180 : en:Chapter 23
01:29:23.191 : en:Chapter 24
01:33:54.629 : en:Chapter 25
01:36:26.714 : en:Chapter 26
01:38:56.764 : en:Chapter 27
01:41:32.619 : en:Chapter 28
01:46:25.645 : en:Chapter 29
01:48:15.455 : en:Chapter 30
01:53:48.788 : en:Chapter 31
01:57:28.107 : en:Chapter 32
02:02:16.662 : en:Chapter 33
02:06:22.575 : en:Chapter 34
02:09:33.966 : en:Chapter 35
02:13:40.946 : en:Chapter 36
02:17:45.290 : en:Chapter 37
02:21:09.994 : en:Chapter 38
02:23:44.649 : en:Chapter 39
02:25:47.739 : en:Chapter 40
02:32:02.680 : en:Chapter 41
02:39:26.690 : en:Chapter 42

Christian Thielemann, Staatskapelle Dresden - Mascagni: Cavalleria Rusticana & Leoncavallo: Pagliacci (2016) [BDRip]