Subcategories
Tags
Language
Tags

Masque - Discography (1992-1994)

Posted By: popsakov
Masque - Discography (1992-1994)

Masque - Discography (1992-1994)
2CD | EAC Rip | FLAC (Img) + Cue + Log ~ 809 Mb | MP3 CBR320 ~ 283 Mb
Full Scans | 00:55:06 + 00:53:23 | RAR 5% Recovery
Progressive Rock, Art Rock | Musea #FGBG 4055.AR / #FGBG 4116.AR

Based in Göthenburg, the band was launched in 1989 by guitarist Johan Engström and four other musicians. Alternately called DÉJÀ VU and then POCKETFUL, they released three demos ("Masque", "Distant Divineness" and "Behind Thoughts") before their first official album in 1992, "Flesh That Understands", under the name MASQUE. "Ten Ways" followed two years after. "Flesh That Understands" will likely remind you of early SAGA but with plenty of interesting and original ideas; the musicianship is tight and the vocals are excellent. "Ten Ways", however, is a totally different affair and difficult to categorize: a mixture of art-pop and world music (African percussions, Mariachi trumpets) tinted with a Scandinavian melancholy. It features a different guitarist and vocalist as well as four new guest musicians. It's a fun album but it's as far from neo prog as an album can get. Neo-prog fans will want to concentrate on "Flesh That Understands" whereas "Ten Ways" is more likely to appeal to fans of Peter Gabriel.

***************

Track List CD1 - Flesh That Understands (1992):

01. Time To Burn [4:13]
02. Feeding Her [4:19]
03. A Confident Dance [8:46]
04. Limbs Might Wail [5:55]
05. Behind Thoughts [3:09]
06. Malaria Man [3:42]
07. Halfroom [6:43]
08. Wash The Sun [3:43]
09. Of Lesser Dogs [14:38]

Exact Audio Copy V1.0 beta 1 from 15. November 2010

EAC extraction logfile from 20. May 2013, 1:06

Masque / Flesh That Understands

Used drive : PLEXTOR DVDR PX-880SA Adapter: 3 ID: 0

Read mode : Secure
Utilize accurate stream : Yes
Defeat audio cache : Yes
Make use of C2 pointers : No

Read offset correction : 6
Overread into Lead-In and Lead-Out : No
Fill up missing offset samples with silence : Yes
Delete leading and trailing silent blocks : No
Null samples used in CRC calculations : Yes
Used interface : Native Win32 interface for Win NT & 2000

Used output format : Internal WAV Routines
Sample format : 44.100 Hz; 16 Bit; Stereo


TOC of the extracted CD

Track | Start | Length | Start sector | End sector
––––––––––––––––––––––––––––-
1 | 0:00.33 | 4:12.70 | 33 | 19002
2 | 4:13.28 | 4:18.60 | 19003 | 38412
3 | 8:32.13 | 8:45.32 | 38413 | 77819
4 | 17:17.45 | 5:54.60 | 77820 | 104429
5 | 23:12.30 | 3:08.20 | 104430 | 118549
6 | 26:20.50 | 3:41.70 | 118550 | 135194
7 | 30:02.45 | 6:42.65 | 135195 | 165409
8 | 36:45.35 | 3:42.30 | 165410 | 182089
9 | 40:27.65 | 14:38.00 | 182090 | 247939


Range status and errors

Selected range

Filename F:\CDA\_OUT\Masque-1992\Masque - Flesh That Understands.wav

Peak level 100.0 %
Extraction speed 2.2 X
Range quality 100.0 %
Copy CRC 710A948B
Copy OK

No errors occurred


AccurateRip summary

Track 1 accurately ripped (confidence 1) [EC0AD9A3]
Track 2 accurately ripped (confidence 1) [52108F66]
Track 3 accurately ripped (confidence 1) [847E8D89]
Track 4 accurately ripped (confidence 1) [50F0ACA3]
Track 5 accurately ripped (confidence 1) [9CB81232]
Track 6 accurately ripped (confidence 1) [8286E738]
Track 7 accurately ripped (confidence 1) [FC1A3BF8]
Track 8 accurately ripped (confidence 1) [74D7F4EA]
Track 9 accurately ripped (confidence 1) [09C4D900]

All tracks accurately ripped

End of status report

==== Log checksum E10903BF74DB24E28EEB1180C87465E169D57BD783C578FDEE94FADE4516ABFD ====

Track List CD2 - Ten Ways (1994):

01. This Love [7:08]
02. Where is God? [4:55]
03. Gentle Moves [4:51]
04. Become [5:26]
05. You [7:10]
06. Ten Ways [5:33]
07. the Scent [4:33]
08. Wrap it Up [5:48]
09. I am Watching You [8:03]

Exact Audio Copy V1.0 beta 1 from 15. November 2010

EAC extraction logfile from 20. May 2013, 1:27

Masque / Ten Ways

Used drive : PLEXTOR DVDR PX-880SA Adapter: 3 ID: 0

Read mode : Secure
Utilize accurate stream : Yes
Defeat audio cache : Yes
Make use of C2 pointers : No

Read offset correction : 6
Overread into Lead-In and Lead-Out : No
Fill up missing offset samples with silence : Yes
Delete leading and trailing silent blocks : No
Null samples used in CRC calculations : Yes
Used interface : Native Win32 interface for Win NT & 2000

Used output format : Internal WAV Routines
Sample format : 44.100 Hz; 16 Bit; Stereo


TOC of the extracted CD

Track | Start | Length | Start sector | End sector
––––––––––––––––––––––––––––-
1 | 0:00.00 | 7:07.60 | 0 | 32084
2 | 7:07.60 | 4:54.42 | 32085 | 54176
3 | 12:02.27 | 4:50.30 | 54177 | 75956
4 | 16:52.57 | 5:25.03 | 75957 | 100334
5 | 22:17.60 | 7:09.52 | 100335 | 132561
6 | 29:27.37 | 5:32.03 | 132562 | 157464
7 | 34:59.40 | 4:32.57 | 157465 | 177921
8 | 39:32.22 | 5:47.60 | 177922 | 204006
9 | 45:20.07 | 8:02.38 | 204007 | 240194


Range status and errors

Selected range

Filename F:\CDA\_OUT\Masque-1994\Masque - Ten Ways.wav

Peak level 95.3 %
Extraction speed 0.4 X
Range quality 99.9 %
Copy CRC 9343651F
Copy OK

No errors occurred


AccurateRip summary

Track 1 not present in database
Track 2 not present in database
Track 3 not present in database
Track 4 not present in database
Track 5 not present in database
Track 6 not present in database
Track 7 not present in database
Track 8 not present in database
Track 9 not present in database

None of the tracks are present in the AccurateRip database

End of status report

==== Log checksum 2ABAD183A8A9E2E1D9A04A7D4EF3EA74C23E2E72C2B34F46E383818C8E891541 ====

All thanks go to the original ripper(s) …

>>> My Blog <<<

DOWNLOAD: