Tags
Language
Tags

Mastodon - Emperor of Sand (2017)

Posted By: Pisulik
Mastodon - Emperor of Sand (2017)

Mastodon - Emperor of Sand (2017)
EAC Rip | FLAC (Tracks) +cue, log - 378 MB | 00:51:13
Progressive Metal | Label: Reprise Records | Release Year: 2017

Emperor Of Sand finds Mastodon returning to a deeply imaginative and complex conceptual storyline that ponders the nature of time. Threading together the myth of a man sentenced to death in a majestically malevolent desert, the band conjures the grains of a musical and lyrical odyssey slipping quickly through a cosmic hourglass. "Emperor of Sand is like the grim reaper," says drummer/vocalist Brann Dailor. "Sand represents time. If you or anyone you know has ever received a terminal diagnosis, the first thought is about time. Invariably, you ask, ‘How much time is left?'"

We're reflecting on mortality," adds bassist/vocalist Troy Sanders. "To that end, the album ties into our entire discography. It's 17 years in the making, but it's also a direct reaction to the last two years. We tend to draw inspiration from very real things in our lives." Emperor Of Sand was recorded at The Quarry Recording Studio in Kennesaw, just outside Mastodon's hometown of Atlanta, with producer Brendan O'Brien (Pearl Jam, Neil Young, AC/DC, Rage Against The Machine), who first worked with Mastodon on their seminal 2009 album Crack The Skye.

TRACKLIST

01. Sultan's Curse
02. Show Yourself
03. Precious Stones
04. Steambreather
05. Roots Remain
06. Word To The Wise
07. Ancient Kingdom
08. Clandestiny
09. Andromeda
10. Scorpion Breath
11. Jaguar God

Exact Audio Copy V1.3 from 2. September 2016

EAC extraction logfile from 30. March 2017, 13:48

Mastodon / Emperor Of Sand

Used drive : PIONEER DVD-RW DVR-219L Adapter: 1 ID: 0

Read mode : Secure
Utilize accurate stream : Yes
Defeat audio cache : Yes
Make use of C2 pointers : No

Read offset correction : 6
Overread into Lead-In and Lead-Out : No
Fill up missing offset samples with silence : Yes
Delete leading and trailing silent blocks : No
Null samples used in CRC calculations : Yes
Used interface : Native Win32 interface for Win NT & 2000
Gap handling : Appended to previous track

Used output format : Internal WAV Routines
Sample format : 44.100 Hz; 16 Bit; Stereo


TOC of the extracted CD

Track | Start | Length | Start sector | End sector
––––––––––––––––––––––––––––-
1 | 0:00.00 | 4:09.40 | 0 | 18714
2 | 4:09.40 | 3:02.67 | 18715 | 32431
3 | 7:12.32 | 3:45.48 | 32432 | 49354
4 | 10:58.05 | 5:03.08 | 49355 | 72087
5 | 16:01.13 | 6:28.15 | 72088 | 101202
6 | 22:29.28 | 4:00.21 | 101203 | 119223
7 | 26:29.49 | 4:54.33 | 119224 | 141306
8 | 31:24.07 | 4:28.35 | 141307 | 161441
9 | 35:52.42 | 4:05.00 | 161442 | 179816
10 | 39:57.42 | 3:19.01 | 179817 | 194742
11 | 43:16.43 | 7:56.32 | 194743 | 230474


Track 1

Filename D:\EAC\Mastodon - Emperor Of Sand (2017) [FLAC]\01 - Sultan's Curse.wav

Pre-gap length 0:00:02.00

Peak level 96.5 %
Extraction speed 2.8 X
Track quality 100.0 %
Test CRC 86BF27EB
Copy CRC 86BF27EB
Track not present in AccurateRip database
Copy OK

Track 2

Filename D:\EAC\Mastodon - Emperor Of Sand (2017) [FLAC]\02 - Show Yourself.wav

Peak level 96.5 %
Extraction speed 3.1 X
Track quality 100.0 %
Test CRC ADDD29D9
Copy CRC ADDD29D9
Track not present in AccurateRip database
Copy OK

Track 3

Filename D:\EAC\Mastodon - Emperor Of Sand (2017) [FLAC]\03 - Precious Stones.wav

Peak level 96.5 %
Extraction speed 2.8 X
Track quality 100.0 %
Test CRC 00C3132A
Copy CRC 00C3132A
Track not present in AccurateRip database
Copy OK

Track 4

Filename D:\EAC\Mastodon - Emperor Of Sand (2017) [FLAC]\04 - Steambreather.wav

Peak level 96.5 %
Extraction speed 2.8 X
Track quality 99.9 %
Test CRC D0B69F9C
Copy CRC D0B69F9C
Track not present in AccurateRip database
Copy OK

Track 5

Filename D:\EAC\Mastodon - Emperor Of Sand (2017) [FLAC]\05 - Roots Remain.wav

Peak level 96.5 %
Extraction speed 2.6 X
Track quality 100.0 %
Test CRC 4D869216
Copy CRC 4D869216
Track not present in AccurateRip database
Copy OK

Track 6

Filename D:\EAC\Mastodon - Emperor Of Sand (2017) [FLAC]\06 - Word To The Wise.wav

Peak level 96.5 %
Extraction speed 2.6 X
Track quality 100.0 %
Test CRC CD027196
Copy CRC CD027196
Track not present in AccurateRip database
Copy OK

Track 7

Filename D:\EAC\Mastodon - Emperor Of Sand (2017) [FLAC]\07 - Ancient Kingdom.wav

Peak level 96.5 %
Extraction speed 2.8 X
Track quality 100.0 %
Test CRC FCA9E63E
Copy CRC FCA9E63E
Track not present in AccurateRip database
Copy OK

Track 8

Filename D:\EAC\Mastodon - Emperor Of Sand (2017) [FLAC]\08 - Clandestiny.wav

Peak level 96.5 %
Extraction speed 2.5 X
Track quality 100.0 %
Test CRC 626E19BA
Copy CRC 626E19BA
Track not present in AccurateRip database
Copy OK

Track 9

Filename D:\EAC\Mastodon - Emperor Of Sand (2017) [FLAC]\09 - Andromeda.wav

Peak level 96.5 %
Extraction speed 2.8 X
Track quality 99.9 %
Test CRC 117827A7
Copy CRC 117827A7
Track not present in AccurateRip database
Copy OK

Track 10

Filename D:\EAC\Mastodon - Emperor Of Sand (2017) [FLAC]\10 - Scorpion Breath.wav

Peak level 96.5 %
Extraction speed 2.6 X
Track quality 100.0 %
Test CRC 87300613
Copy CRC 87300613
Track not present in AccurateRip database
Copy OK

Track 11

Filename D:\EAC\Mastodon - Emperor Of Sand (2017) [FLAC]\11 - Jaguar God.wav

Peak level 96.5 %
Extraction speed 2.8 X
Track quality 99.9 %
Test CRC 8F55580F
Copy CRC 8F55580F
Track not present in AccurateRip database
Copy OK


None of the tracks are present in the AccurateRip database

No errors occurred

End of status report


All thanks go to the original releaser - Idenline