Tags
Language
Tags

Matthias Jung, Batzdorfer Hofkapelle, Sächsisches Vocalensemble - Hasse: Te Deum; Sacred Works (2010)

Posted By: ArlegZ
Matthias Jung, Batzdorfer Hofkapelle, Sächsisches Vocalensemble - Hasse: Te Deum; Sacred Works (2010)

Matthias Jung, Batzdorfer Hofkapelle, Sächsisches Vocalensemble - Hasse: Te Deum; Sacred Works (2010)
EAC | FLAC | Image (Cue & Log) ~ 327 Mb | Total time: 68:24 | Scans included
Classical | Label: CPO | # 777 462-2 | Recorded: 2009

While Hasse’s early fame rested above all on his operas, in more recent times it is especially his sacred compositions that have enjoyed immense esteem. This CD features his Te Deum and other sacred works.

Performer:
Barbara Christina Steude, soprano
Susanne Langner, alto
Georg Poplutz, tenor
Matthias Lutze, bass
Sächsisches Vocalensemble
Batzdorfer Hofkapelle
Matthias Jung, conductor

Track List:
Johann Adolf Hasse (1699-1783)
Te Deum in D
01. Te Deum laudamus
02. Salvum fac
03. Et rege eos
Litaniae Lauretanae
04. Kyrie eleison
05. Sancta Maria
06. Salus infirmorum
07. Regina angelorum
08. Agnus Dei 1
09. Agnus Dei 2
10. Sub tuum praesidium
Tantum ergo in Es
11. Tantum ergo
12. Genitori genitoque
13. Procedenti ab utroque
Tantum ergo in C
14. Tantum ergo
15. Amen
Regina coeli in D
16. Regina coeli, laetare
17. Ora pro nobis
18. Regina coeli, laetare


Exact Audio Copy V1.5 from 20. February 2020

EAC extraction logfile from 4. March 2021, 15:47

Barbara Christina Steude, Susanne Langner, Georg Poplutz, Matthias Lutze / Te Deum · Sacred Works

Used drive : ATAPI iHAS124 F Adapter: 1 ID: 0

Read mode : Secure
Utilize accurate stream : Yes
Defeat audio cache : Yes
Make use of C2 pointers : No

Read offset correction : 6
Overread into Lead-In and Lead-Out : No
Fill up missing offset samples with silence : Yes
Delete leading and trailing silent blocks : No
Null samples used in CRC calculations : Yes
Used interface : Native Win32 interface for Win NT & 2000

Used output format : User Defined Encoder
Selected bitrate : 1024 kBit/s
Quality : High
Add ID3 tag : No
Command line compressor : C:\Program Files (x86)\Exact Audio Copy\FLAC\FLAC.EXE
Additional command line options : -6 -V -T "ARTIST=%artist%" -T "TITLE=%title%" -T "ALBUM=%albumtitle%" -T "DATE=%year%" -T "TRACKNUMBER=%tracknr%" -T "GENRE=%genre%" -T "COMMENT=%comment%" -T "BAND=%albuminterpret%" -T "ALBUMARTIST=%albuminterpret%" -T "COMPOSER=%composer%" %haslyrics%–tag-from-file=LYRICS="%lyricsfile%"%haslyrics% -T "DISCNUMBER=%cdnumber%" -T "TOTALDISCS=%totalcds%" -T "TOTALTRACKS=%numtracks%" %hascover%–picture="%coverfile%"%hascover% %source% -o %dest%


TOC of the extracted CD

Track | Start | Length | Start sector | End sector
––––––––––––––––––––––––––––-
1 | 0:00.00 | 5:25.43 | 0 | 24417
2 | 5:25.43 | 4:40.45 | 24418 | 45462
3 | 10:06.13 | 4:36.20 | 45463 | 66182
4 | 14:42.33 | 3:58.21 | 66183 | 84053
5 | 18:40.54 | 3:37.35 | 84054 | 100363
6 | 22:18.14 | 4:39.66 | 100364 | 121354
7 | 26:58.05 | 2:16.03 | 121355 | 131557
8 | 29:14.08 | 4:12.02 | 131558 | 150459
9 | 33:26.10 | 3:47.59 | 150460 | 167543
10 | 37:13.69 | 2:39.37 | 167544 | 179505
11 | 39:53.31 | 5:08.21 | 179506 | 202626
12 | 45:01.52 | 3:36.24 | 202627 | 218850
13 | 48:38.01 | 1:51.48 | 218851 | 227223
14 | 50:29.49 | 4:42.65 | 227224 | 248438
15 | 55:12.39 | 2:22.00 | 248439 | 259088
16 | 57:34.39 | 3:58.46 | 259089 | 276984
17 | 61:33.10 | 3:07.16 | 276985 | 291025
18 | 64:40.26 | 3:42.22 | 291026 | 307697


Range status and errors

Selected range

Filename C:\EACRip\VARIOUS\Hasse - Te Deum · Sacred Works (Matthias Jung) (2010)\Hasse - Te Deum · Sacred Works - Matthias Jung.wav

Peak level 96.6 %
Extraction speed 9.4 X
Range quality 100.0 %
Test CRC D691EF73
Copy CRC D691EF73
Copy OK

No errors occurred


AccurateRip summary

Track 1 accurately ripped (confidence 4) [D269759D] (AR v2)
Track 2 accurately ripped (confidence 4) [02BA07DC] (AR v2)
Track 3 accurately ripped (confidence 4) [FF7D1E8D] (AR v2)
Track 4 accurately ripped (confidence 4) [FF2386FC] (AR v2)
Track 5 accurately ripped (confidence 4) [74D9BDAB] (AR v2)
Track 6 accurately ripped (confidence 4) [BEE51951] (AR v2)
Track 7 accurately ripped (confidence 4) [6FC594F6] (AR v2)
Track 8 accurately ripped (confidence 4) [F044EFF6] (AR v2)
Track 9 accurately ripped (confidence 4) [2D72C48B] (AR v2)
Track 10 accurately ripped (confidence 4) [639BAD48] (AR v2)
Track 11 accurately ripped (confidence 4) [E98601FE] (AR v2)
Track 12 accurately ripped (confidence 4) [30D27764] (AR v2)
Track 13 accurately ripped (confidence 4) [1C57E559] (AR v2)
Track 14 accurately ripped (confidence 4) [A46C1FAC] (AR v2)
Track 15 accurately ripped (confidence 4) [B0535C01] (AR v2)
Track 16 accurately ripped (confidence 4) [67D2EEB3] (AR v2)
Track 17 accurately ripped (confidence 4) [31175CBF] (AR v2)
Track 18 accurately ripped (confidence 4) [DAF1460D] (AR v2)

All tracks accurately ripped

End of status report

–– CUETools DB Plugin V2.1.6

[CTDB TOCID: hfOEgTsJN4lSAWSqW45ayP5itR8-] found
Submit result: hfOEgTsJN4lSAWSqW45ayP5itR8- has been confirmed
Track | CTDB Status
1 | (11/11) Accurately ripped
2 | (11/11) Accurately ripped
3 | (11/11) Accurately ripped
4 | (11/11) Accurately ripped
5 | (11/11) Accurately ripped
6 | (11/11) Accurately ripped
7 | (11/11) Accurately ripped
8 | (11/11) Accurately ripped
9 | (11/11) Accurately ripped
10 | (11/11) Accurately ripped
11 | (11/11) Accurately ripped
12 | (11/11) Accurately ripped
13 | (11/11) Accurately ripped
14 | (11/11) Accurately ripped
15 | (11/11) Accurately ripped
16 | (11/11) Accurately ripped
17 | (11/11) Accurately ripped
18 | (11/11) Accurately ripped


==== Log checksum 4DEE251844947BAD62D4CB409CDD75B9CBC5A6739170622F6A9EE8A5908B4BC2 ====

Matthias Jung, Batzdorfer Hofkapelle, Sächsisches Vocalensemble - Hasse: Te Deum; Sacred Works (2010)

Thanks to the original releaser