Tags
Language
Tags

Mauro Peter, Helmut Deutsch - Schumann: Dichterliebe, Selected Songs (2016)

Posted By: tirexiss
Mauro Peter, Helmut Deutsch - Schumann: Dichterliebe, Selected Songs (2016)

Mauro Peter, Helmut Deutsch - Schumann: Dichterliebe, Selected Songs (2016)
EAC | FLAC (image+.cue, log) | Covers Included | 65:11 | 242 MB
Genre: Classical, Vocal | Label: Sony Classical | Catalog: 88985338492

Swiss tenor Mauro Peter is equally at home on the operatic stage and in the recital hall. He began his career singing in the Lucerne Boys Choir. He studied at the Munich University of Music and Theater and the Bavarian Theater Academy, and his teachers included Fenna Kügel-Seifried, August Everding, Christoph Adt, and Helmut Deutsch. He made his operatic debut at the Bad Reichenhaller Philharmonie, and he performed at the State Theater at the Gärtnerplatz, the Bavarian Theater Academy, and the Prince Regent Theater in Munich. He has performed with the Munich Radio Orchestra in performances of oratorios by Bach, Handel, and Haydn, as well as Mozart's Requiem. As a recitalist, he has performed songs by Schubert, Liszt, Wolf, Warlock, and Barber. He is a frequent guest artist at music festivals, including the Schubertiade in Schwarzenberg and Hohenems and the Salzburg Festival. He has recorded Schubert's Die schöne Müllerin for the Wigmore Hall Live label, and Lieder of Schubert and Schumann for Sony Classical. – Blair Sanderson

Mauro Peter, Helmut Deutsch - Schumann: Dichterliebe, Selected Songs (2016)

Track List:

1-16. Dichterliebe, Op.48
17-21. Fünf Lieder, Op.40
22. Der arme Peter, Op.53 No.3
23. Abends am Strand, Op.45, No.3
24. Dein Angesicht, Op.127 No.2
25. Lehn' deine Wang' an meine Wang', Op.142 No.2
26. Es leuchtet meine Liebe, Op.127 No.3
27. Mein Wagen rollet langsam, Op.142 No.4
28. Belsazar, Op.57
29-31. Tragödie, Op.64 No.3

Performers:
Mauro Peter, tenor
Helmut Deutsch, piano
Nikola Hillebrand, soprano (31)

Exact Audio Copy V1.1 from 23. June 2015

EAC extraction logfile from 17. May 2017, 21:16

Mauro Peter, Helmut Deutsch / Schumann - Dichterliebe & Selected Songs

Used drive : PLDS DVD-RW DU8A6SH Adapter: 1 ID: 0

Read mode : Secure
Utilize accurate stream : Yes
Defeat audio cache : Yes
Make use of C2 pointers : No

Read offset correction : 6
Overread into Lead-In and Lead-Out : No
Fill up missing offset samples with silence : Yes
Delete leading and trailing silent blocks : No
Null samples used in CRC calculations : Yes
Used interface : Native Win32 interface for Win NT & 2000

Used output format : User Defined Encoder
Selected bitrate : 128 kBit/s
Quality : High
Add ID3 tag : No
Command line compressor : C:\Program Files (x86)\Exact Audio Copy\Flac\flac.exe
Additional command line options : -V -8 -T "Date=%year%" -T "Genre=%genre%" %source%


TOC of the extracted CD

Track | Start | Length | Start sector | End sector
––––––––––––––––––––––––––––-
1 | 0:00.00 | 1:28.23 | 0 | 6622
2 | 1:28.23 | 0:49.62 | 6623 | 10359
3 | 2:18.10 | 0:36.43 | 10360 | 13102
4 | 2:54.53 | 1:37.43 | 13103 | 20420
5 | 4:32.21 | 0:57.31 | 20421 | 24726
6 | 5:29.52 | 2:10.54 | 24727 | 34530
7 | 7:40.31 | 1:32.29 | 34531 | 41459
8 | 9:12.60 | 1:17.03 | 41460 | 47237
9 | 10:29.63 | 1:30.33 | 47238 | 54020
10 | 12:00.21 | 2:19.09 | 54021 | 64454
11 | 14:19.30 | 1:06.05 | 64455 | 69409
12 | 15:25.35 | 2:32.00 | 69410 | 80809
13 | 17:57.35 | 2:10.66 | 80810 | 90625
14 | 20:08.26 | 1:26.52 | 90626 | 97127
15 | 21:35.03 | 2:42.21 | 97128 | 109298
16 | 24:17.24 | 4:32.44 | 109299 | 129742
17 | 28:49.68 | 1:36.04 | 129743 | 136946
18 | 30:25.72 | 2:34.01 | 136947 | 148497
19 | 32:59.73 | 2:48.17 | 148498 | 161114
20 | 35:48.15 | 2:51.45 | 161115 | 173984
21 | 38:39.60 | 0:55.00 | 173985 | 178109
22 | 39:34.60 | 4:42.41 | 178110 | 199300
23 | 44:17.26 | 2:57.45 | 199301 | 212620
24 | 47:14.71 | 2:05.40 | 212621 | 222035
25 | 49:20.36 | 0:44.05 | 222036 | 225340
26 | 50:04.41 | 1:59.08 | 225341 | 234273
27 | 52:03.49 | 3:22.20 | 234274 | 249443
28 | 55:25.69 | 4:38.52 | 249444 | 270345
29 | 60:04.46 | 1:17.44 | 270346 | 276164
30 | 61:22.15 | 1:56.03 | 276165 | 284867
31 | 63:18.18 | 1:51.51 | 284868 | 293243


Range status and errors

Selected range

Filename C:\temp\Schumann - Dichterliebe - Mauro Peter\Schumann - Dichterliebe & Selected Songs.wav

Peak level 92.1 %
Extraction speed 3.9 X
Range quality 100.0 %
Test CRC D87285DD
Copy CRC D87285DD
Copy OK

No errors occurred


AccurateRip summary

Track 1 not present in database
Track 2 not present in database
Track 3 not present in database
Track 4 not present in database
Track 5 not present in database
Track 6 not present in database
Track 7 not present in database
Track 8 not present in database
Track 9 not present in database
Track 10 not present in database
Track 11 not present in database
Track 12 not present in database
Track 13 not present in database
Track 14 not present in database
Track 15 not present in database
Track 16 not present in database
Track 17 not present in database
Track 18 not present in database
Track 19 not present in database
Track 20 not present in database
Track 21 not present in database
Track 22 not present in database
Track 23 not present in database
Track 24 not present in database
Track 25 not present in database
Track 26 not present in database
Track 27 not present in database
Track 28 not present in database
Track 29 not present in database
Track 30 not present in database
Track 31 not present in database

None of the tracks are present in the AccurateRip database

End of status report

==== Log checksum 44272357C3BBF6C015965A890FA865874A921695CEE68D12911500964CD00298 ====

[CUETools log; Date: 23.02.2018 16:18:52; Version: 2.1.5]
[CTDB TOCID: .98PyBHFrJr3aq_Kci9CXZD5Xfg-] found.
Track | CTDB Status
1 | (4/4) Accurately ripped
2 | (4/4) Accurately ripped
3 | (4/4) Accurately ripped
4 | (4/4) Accurately ripped
5 | (4/4) Accurately ripped
6 | (4/4) Accurately ripped
7 | (4/4) Accurately ripped
8 | (4/4) Accurately ripped
9 | (4/4) Accurately ripped
10 | (4/4) Accurately ripped
11 | (4/4) Accurately ripped
12 | (4/4) Accurately ripped
13 | (4/4) Accurately ripped
14 | (4/4) Accurately ripped
15 | (4/4) Accurately ripped
16 | (4/4) Accurately ripped
17 | (4/4) Accurately ripped
18 | (4/4) Accurately ripped
19 | (4/4) Accurately ripped
20 | (4/4) Accurately ripped
21 | (4/4) Accurately ripped
22 | (4/4) Accurately ripped
23 | (4/4) Accurately ripped
24 | (4/4) Accurately ripped
25 | (4/4) Accurately ripped
26 | (4/4) Accurately ripped
27 | (4/4) Accurately ripped
28 | (4/4) Accurately ripped
29 | (4/4) Accurately ripped
30 | (4/4) Accurately ripped
31 | (4/4) Accurately ripped
[AccurateRip ID: 003f7afa-05b89f89-9f0f451f] disk not present in database.

Track Peak [ CRC32 ] [W/O NULL] [ LOG ]
– 92,1 [D87285DD] [9D06AE24] CRC32
01 43,3 [C2ADACA3] [AB70DFF5]
02 25,0 [135AFB30] [B72BE27E]
03 38,8 [DE9B26D8] [146F2D28]
04 45,6 [92E8225A] [CFC070B9]
05 37,5 [8F927896] [1B9C11BC]
06 37,0 [D9C6A5AA] [23F46FE2]
07 78,3 [3508A315] [A19826CE]
08 57,8 [E5EB8B17] [4E5B22B6]
09 64,7 [717D1C41] [C1458498]
10 25,9 [673513EC] [E8FCC6A7]
11 73,0 [3456CA42] [EDDB3D31]
12 19,0 [67FDD13E] [4F3692A5]
13 72,2 [0C0F62A6] [FBE2CEB9]
14 30,0 [6931D57C] [62760F6D]
15 57,0 [3737DF88] [B39C31C2]
16 54,0 [21AF094C] [378D3600]
17 28,0 [AFA6F791] [A720A6D0]
18 36,6 [2ECADDF1] [7E8862BD]
19 74,0 [5F617803] [610AB2B0]
20 65,6 [D867D719] [25692CEF]
21 51,7 [2A1D831D] [732D7DF8]
22 58,9 [11BB3297] [FBDD4769]
23 58,5 [1E02A113] [A80F489C]
24 42,1 [A8373484] [1D32DBC5]
25 92,1 [8F401953] [29505CEB]
26 55,1 [A425F3A8] [20187425]
27 40,4 [0F6566C2] [CA0084AC]
28 85,8 [73C8525C] [DCB50BC8]
29 60,6 [FEC3E0D7] [69F03CF4]
30 39,6 [DC7259EA] [D063F77A]
31 23,7 [9C08E6A9] [6C57BEB1]

Thanks to the Original ripper A-Z!

Download: