Subcategories

Medeski / Scofield / Martin / Wood - MSMW Live-In Case The World Changes Its Mind (2011) [2CDs]

Posted By: tiburon
Medeski / Scofield / Martin / Wood - MSMW Live-In Case The World Changes Its Mind (2011) [2CDs]

Medeski / Scofield / Martin / Wood - MSMW Live-In Case The World Changes Its Mind (2011) [2CDs]
EAC 1.0b3 | FLAC tracks level 8 | Cue+Log+M3U | Full Scans 300dpi | 766MB + 5% Recovery
Genre: Fusion
Medeski / Scofield / Martin / Wood - MSMW Live-In Case The World Changes Its Mind (2011) [2CDs]

Medeski, Martin & Wood are among the busiest acts in the music biz. To celebrate their 20-year anniversary in 2011, the group has been releasing its latest album, 20, track by track. Also this year, following the grand Radiolarians series, they decided to issue its DVD portion, Fly in a Bottle, as a separate package; finally, there's MSMW Live: In Case the World Changes Its Mind, an utterly kinetic recording from their 2006 tour with jazz guitar boss John Scofield. In 1997 the trio backed Sco on his stellar A Go Go album. He returned the favor in 2006 by playing on MMW's Out Louder; this tour followed. The double disc collects performances from both recordings and a couple of others.
Track List

Disc 1
1. A Go Go (John Scofield) 8:35
2. Deadzy (John Scofield) 4:15
3. What Now (Medeski, Scofield, Martin, Wood) 7:38
4. Tootie Ma Is a Big Fine Thing (Trad. Arranged by Medeski, Scofield, Martin, Wood) 8:59
5. Cachaça (Chris Wood) 9:59
6. In Case the World Changes It's Mind (Medeski, Scofield, Martin, Wood) 12:58
7. Miles Behind (Medeski, Scofield, Martin, Wood) 8:40

Disc 2
1. Little Walter Rides Again (John Scogfield) 12:34
2. Hanuman (Medeski, Scofield, Martin, Wood) 13:21
3. Amazing Grace (Trad. Arranged by Medeski, Scofield, Martin, Wood) 8:55
4. Southern Pacific (John Scofield) 8:09
5. Hottentot (John Scofield) 11:36

musicians
John Medeski - keyboards
John Scofield - guitar
Bill Martin - basses
Chris Wood - drums, percussion


Exact Audio Copy V1.0 beta 3 from 29. August 2011

EAC extraction logfile from 15. February 2013, 20:54

Medeski, Scofield, Martin & Wood / MSMW Live-In Case the World Changes Its Mind (Disc 1)

Used drive : PLEXTOR DVDR PX-L890SA Adapter: 2 ID: 1

Read mode : Secure
Utilize accurate stream : Yes
Defeat audio cache : Yes
Make use of C2 pointers : No

Read offset correction : 6
Overread into Lead-In and Lead-Out : No
Fill up missing offset samples with silence : Yes
Delete leading and trailing silent blocks : No
Null samples used in CRC calculations : Yes
Used interface : Native Win32 interface for Win NT & 2000
Gap handling : Appended to previous track

Used output format : User Defined Encoder
Selected bitrate : 256 kBit/s
Quality : High
Add ID3 tag : No
Command line compressor : C:\Program Files (x86)\Exact Audio Copy\FLAC\FLAC.EXE
Additional command line options : -8 -V -T "ARTIST=%artist%" -T "TITLE=%title%" -T "ALBUM=%albumtitle%" -T "DATE=%year%" -T "TRACKNUMBER=%tracknr%" -T "TOTALTRACKS=%numtracks%" -T "GENRE=%genre%" -T "ALBUMARTIST=%albumartist%" -T "ALBUM ARTIST=%albumartist%" -T "COMMENT=EAC Secure Mode, Test & Copy, AccurateRip, FLAC -8" %source%


TOC of the extracted CD

Track | Start | Length | Start sector | End sector
––––––––––––––––––––––––––––-
1 | 0:00.00 | 8:35.29 | 0 | 38653
2 | 8:35.29 | 4:15.37 | 38654 | 57815
3 | 12:50.66 | 7:38.03 | 57816 | 92168
4 | 20:28.69 | 8:59.12 | 92169 | 132605
5 | 29:28.06 | 9:59.01 | 132606 | 177531
6 | 39:27.07 | 12:57.43 | 177532 | 235849
7 | 52:24.50 | 8:39.55 | 235850 | 274829


Track 1

Filename F:\Flac Rips\01 - A Go Go.wav

Pre-gap length 0:00:02.00

Peak level 89.1 %
Extraction speed 3.8 X
Track quality 100.0 %
Test CRC 1B110A7A
Copy CRC 1B110A7A
Accurately ripped (confidence 5) [13B44404] (AR v1)
Copy OK

Track 2

Filename F:\Flac Rips\02 - Deadzy.wav

Peak level 89.1 %
Extraction speed 4.2 X
Track quality 100.0 %
Test CRC 182FBA7C
Copy CRC 182FBA7C
Accurately ripped (confidence 5) [170132C1] (AR v1)
Copy OK

Track 3

Filename F:\Flac Rips\03 - What Now.wav

Peak level 89.1 %
Extraction speed 4.9 X
Track quality 100.0 %
Test CRC FB287532
Copy CRC FB287532
Accurately ripped (confidence 5) [D3CAC4A4] (AR v1)
Copy OK

Track 4

Filename F:\Flac Rips\04 - Tootie Ma Is A Big Fine Thing.wav

Peak level 89.1 %
Extraction speed 5.0 X
Track quality 99.9 %
Test CRC FACEEE76
Copy CRC FACEEE76
Accurately ripped (confidence 5) [4DB89ACC] (AR v1)
Copy OK

Track 5

Filename F:\Flac Rips\05 - Cachaca.wav

Peak level 89.1 %
Extraction speed 6.2 X
Track quality 100.0 %
Test CRC AC2257F3
Copy CRC AC2257F3
Accurately ripped (confidence 5) [F586045F] (AR v1)
Copy OK

Track 6

Filename F:\Flac Rips\06 - In Case The World Changes Its Mind.wav

Peak level 89.1 %
Extraction speed 7.0 X
Track quality 100.0 %
Test CRC E2D6C7BD
Copy CRC E2D6C7BD
Accurately ripped (confidence 5) [EF9BD108] (AR v1)
Copy OK

Track 7

Filename F:\Flac Rips\07 - Miles Behind.wav

Peak level 89.1 %
Extraction speed 7.3 X
Track quality 100.0 %
Test CRC 94D45989
Copy CRC 94D45989
Accurately ripped (confidence 5) [1C88EF52] (AR v1)
Copy OK


All tracks accurately ripped

No errors occurred

End of status report

==== Log checksum 84B8AE0658EC68F278550536EE09309E657A98D417168375200737FD7ABFF499 ====
________________________________________________________________________________________
Exact Audio Copy V1.0 beta 3 from 29. August 2011

EAC extraction logfile from 15. February 2013, 21:28

Medeski, Scofield, Martin & Wood / MSMW Live-In Case the World Changes Its Mind (Disc 2)

Used drive : PLEXTOR DVDR PX-L890SA Adapter: 2 ID: 1

Read mode : Secure
Utilize accurate stream : Yes
Defeat audio cache : Yes
Make use of C2 pointers : No

Read offset correction : 6
Overread into Lead-In and Lead-Out : No
Fill up missing offset samples with silence : Yes
Delete leading and trailing silent blocks : No
Null samples used in CRC calculations : Yes
Used interface : Native Win32 interface for Win NT & 2000
Gap handling : Appended to previous track

Used output format : User Defined Encoder
Selected bitrate : 256 kBit/s
Quality : High
Add ID3 tag : No
Command line compressor : C:\Program Files (x86)\Exact Audio Copy\FLAC\FLAC.EXE
Additional command line options : -8 -V -T "ARTIST=%artist%" -T "TITLE=%title%" -T "ALBUM=%albumtitle%" -T "DATE=%year%" -T "TRACKNUMBER=%tracknr%" -T "TOTALTRACKS=%numtracks%" -T "GENRE=%genre%" -T "ALBUMARTIST=%albumartist%" -T "ALBUM ARTIST=%albumartist%" -T "COMMENT=EAC Secure Mode, Test & Copy, AccurateRip, FLAC -8" %source%


TOC of the extracted CD

Track | Start | Length | Start sector | End sector
––––––––––––––––––––––––––––-
1 | 0:00.00 | 12:34.27 | 0 | 56576
2 | 12:34.27 | 13:21.34 | 56577 | 116685
3 | 25:55.61 | 8:55.05 | 116686 | 156815
4 | 34:50.66 | 8:09.27 | 156816 | 193517
5 | 43:00.18 | 11:36.01 | 193518 | 245718


Track 1

Filename F:\Flac Rips\01 - Little Walter Rides Again.wav

Pre-gap length 0:00:02.00

Peak level 89.1 %
Extraction speed 4.1 X
Track quality 100.0 %
Test CRC AA3F1D7F
Copy CRC AA3F1D7F
Accurately ripped (confidence 5) [8087A135] (AR v1)
Copy OK

Track 2

Filename F:\Flac Rips\02 - Hanuman.wav

Peak level 89.1 %
Extraction speed 4.9 X
Track quality 99.9 %
Test CRC C3334AEC
Copy CRC C3334AEC
Accurately ripped (confidence 5) [F787E32A] (AR v1)
Copy OK

Track 3

Filename F:\Flac Rips\03 - Amazing Grace.wav

Peak level 89.1 %
Extraction speed 5.9 X
Track quality 100.0 %
Test CRC D4ADBFEA
Copy CRC D4ADBFEA
Accurately ripped (confidence 5) [5B20787B] (AR v1)
Copy OK

Track 4

Filename F:\Flac Rips\04 - Southern Pacific.wav

Peak level 89.1 %
Extraction speed 5.6 X
Track quality 99.9 %
Test CRC 4DE6CDB4
Copy CRC 4DE6CDB4
Accurately ripped (confidence 5) [913A4F3E] (AR v1)
Copy OK

Track 5

Filename F:\Flac Rips\05 - Hottentot.wav

Peak level 89.1 %
Extraction speed 7.1 X
Track quality 100.0 %
Test CRC C0AB78B3
Copy CRC C0AB78B3
Accurately ripped (confidence 5) [A3F7E462] (AR v1)
Copy OK


All tracks accurately ripped

No errors occurred

End of status report

==== Log checksum E277A17CD70304980EF860CD1B42838F8315204E73C741290C298AC98C629257 ====


––––––––––––––––––––––––––––––––––––––––
Analyzed: Medeski, Scofield, Martin & Wood / MSMW Live-In Case the World Changes Its Mind (Disc 1)
––––––––––––––––––––––––––––––––––––––––

DR Peak RMS Duration Track
––––––––––––––––––––––––––––––––––––––––
DR9 -1.00 dB -12.38 dB 8:35 01-A Go Go
DR10 -1.00 dB -12.90 dB 4:15 02-Deadzy
DR7 -1.00 dB -9.73 dB 7:38 03-What Now
DR10 -1.00 dB -13.98 dB 8:59 04-Tootie Ma Is A Big Fine Thing
DR9 -1.00 dB -12.68 dB 9:59 05-Cachaca
DR9 -1.00 dB -12.15 dB 12:58 06-In Case The World Changes Its Mind
DR8 -1.00 dB -10.90 dB 8:40 07-Miles Behind
––––––––––––––––––––––––––––––––––––––––

Number of tracks: 7
Official DR value: DR9

Samplerate: 44100 Hz
Channels: 2
Bits per sample: 16
Bitrate: 1020 kbps
Codec: FLAC
================================================================================
––––––––––––––––––––––––––––––––––––––––
Analyzed: Medeski, Scofield, Martin & Wood / MSMW Live-In Case the World Changes Its Mind (Disc 2)
––––––––––––––––––––––––––––––––––––––––

DR Peak RMS Duration Track
––––––––––––––––––––––––––––––––––––––––
DR9 -1.00 dB -12.03 dB 12:34 01-Little Walter Rides Again
DR7 -1.00 dB -10.07 dB 13:21 02-Hanuman
DR9 -1.00 dB -12.75 dB 8:55 03-Amazing Grace
DR9 -1.00 dB -11.95 dB 8:09 04-Southern Pacific
DR7 -1.00 dB -9.79 dB 11:36 05-Hottentot
––––––––––––––––––––––––––––––––––––––––

Number of tracks: 5
Official DR value: DR8

Samplerate: 44100 Hz
Channels: 2
Bits per sample: 16
Bitrate: 956 kbps
Codec: FLAC
================================================================================

Medeski / Scofield / Martin / Wood - MSMW Live-In Case The World Changes Its Mind (2011) [2CDs]
Medeski / Scofield / Martin / Wood - MSMW Live-In Case The World Changes Its Mind (2011) [2CDs]
Medeski / Scofield / Martin / Wood - MSMW Live-In Case The World Changes Its Mind (2011) [2CDs]
Medeski / Scofield / Martin / Wood - MSMW Live-In Case The World Changes Its Mind (2011) [2CDs]


Rip by jlgt