Subcategories

Memphis Slim - Lord Have Mercy On Me (1968) REPOST

Posted By: uff
Memphis Slim - Lord Have Mercy On Me (1968) REPOST

Memphis Slim - Lord Have Mercy On Me (1968)
Blues | 1cd | EAC Rip | Flac + Cue + Log | covers
Maison De Blues, 983 343-9 | rem: 2006 | 195Mb

Recorded in Paris during the year 1968, Memphis Slim's Lord Have Mercy on Me belongs among his best work in the straightforward blues category. Supported by bassist Henri Tischitz and drummer Michel Denis, Slim lays down 12 studies in Southern-born and Chicago-bred blues, prefacing each track with a spoken title and usually including the take number. "San Juan Blues" operates over a New Orleans rhumba framework. "Three in One Boogie" is a glorious example of this worldly pianist's masterful boogie-woogie technique. The rest of the material either kicks a bit or settles down for a slow and reflective grind, gently grappling with the complexities of life, love, and human nature. ~Allmusic

Track listing
01. Messin' Around (3:08)
02. Big Town Girl (1:48)
03. Wish Me Well (2:34)
04. Alberta (3:52)
05. Three in One Boogie (3:23)
06. San Juan Blues (2:15)
07. Sweet Root Man (2:44)
08. Lord Have Mercy on Me (2:28)
09. Whiskey Drinking Man (3:15)
10. Between Midnight and Dawn (3:07)
11. Blue and Lonesome (2:57)
12. Misery (2:18)


Exact Audio Copy V0.99 prebeta 5 from 4. May 2009

EAC extraction logfile from 24. May 2009, 0:49

Memphis Slim / Lord Have Mercy on Me

Used drive : PIONEER DVD-RW DVR-116D Adapter: 5 ID: 2

Read mode : Secure
Utilize accurate stream : Yes
Defeat audio cache : Yes
Make use of C2 pointers : No

Read offset correction : 96
Overread into Lead-In and Lead-Out : No
Fill up missing offset samples with silence : Yes
Delete leading and trailing silent blocks : No
Null samples used in CRC calculations : Yes
Used interface : Installed external ASPI interface
Gap handling : Appended to previous track

Used output format : Internal WAV Routines
Sample format : 44.100 Hz; 16 Bit; Stereo


TOC of the extracted CD

Track | Start | Length | Start sector | End sector
––––––––––––––––––––––––––––-
1 | 0:00.00 | 3:10.48 | 0 | 14297
2 | 3:10.48 | 1:51.19 | 14298 | 22641
3 | 5:01.67 | 2:37.70 | 22642 | 34486
4 | 7:39.62 | 3:55.23 | 34487 | 52134
5 | 11:35.10 | 3:25.44 | 52135 | 67553
6 | 15:00.54 | 2:18.28 | 67554 | 77931
7 | 17:19.07 | 2:47.32 | 77932 | 90488
8 | 20:06.39 | 2:30.37 | 90489 | 101775
9 | 22:37.01 | 3:18.07 | 101776 | 116632
10 | 25:55.08 | 3:09.73 | 116633 | 130880
11 | 29:05.06 | 2:59.70 | 130881 | 144375
12 | 32:05.01 | 2:18.41 | 144376 | 154766


Track 1

Filename D:\EAC\Memphis Lord\01 - Messin' Around.wav

Pre-gap length 0:00:02.00

Peak level 84.4 %
Track quality 100.0 %
Test CRC F32BE234
Copy CRC F32BE234
Accurately ripped (confidence 1) [A72F59D2]
Copy OK

Track 2

Filename D:\EAC\Memphis Lord\02 - Big Town Girl.wav

Pre-gap length 0:00:02.00

Peak level 86.9 %
Track quality 99.9 %
Test CRC 6F4CE1A0
Copy CRC 6F4CE1A0
Accurately ripped (confidence 1) [89F6D285]
Copy OK

Track 3

Filename D:\EAC\Memphis Lord\03 - Wish Me Well.wav

Pre-gap length 0:00:03.00

Peak level 75.6 %
Track quality 100.0 %
Test CRC 739AD345
Copy CRC 739AD345
Accurately ripped (confidence 1) [A79E92F3]
Copy OK

Track 4

Filename D:\EAC\Memphis Lord\04 - Alberta.wav

Pre-gap length 0:00:03.00

Peak level 82.0 %
Track quality 100.0 %
Test CRC 046550D9
Copy CRC 046550D9
Accurately ripped (confidence 1) [54FCE710]
Copy OK

Track 5

Filename D:\EAC\Memphis Lord\05 - Three in One Boogie.wav

Pre-gap length 0:00:03.00

Peak level 71.9 %
Track quality 100.0 %
Test CRC FE112B9E
Copy CRC FE112B9E
Accurately ripped (confidence 1) [837BD748]
Copy OK

Track 6

Filename D:\EAC\Memphis Lord\06 - San Juan Blues.wav

Pre-gap length 0:00:02.00

Peak level 60.1 %
Track quality 100.0 %
Test CRC BBE4EABC
Copy CRC BBE4EABC
Accurately ripped (confidence 1) [073ED2B8]
Copy OK

Track 7

Filename D:\EAC\Memphis Lord\07 - Sweet Root Man.wav

Pre-gap length 0:00:03.00

Peak level 70.2 %
Track quality 100.0 %
Test CRC BD99AD64
Copy CRC BD99AD64
Accurately ripped (confidence 1) [18BA6EF9]
Copy OK

Track 8

Filename D:\EAC\Memphis Lord\08 - Lord Have Mercy on Me.wav

Pre-gap length 0:00:03.00

Peak level 77.2 %
Track quality 100.0 %
Test CRC DD8A40B9
Copy CRC DD8A40B9
Accurately ripped (confidence 1) [3FC216CB]
Copy OK

Track 9

Filename D:\EAC\Memphis Lord\09 - Whiskey Drinking Man.wav

Pre-gap length 0:00:02.00

Peak level 80.9 %
Track quality 100.0 %
Test CRC 48D2C151
Copy CRC 48D2C151
Accurately ripped (confidence 1) [24373F57]
Copy OK

Track 10

Filename D:\EAC\Memphis Lord\10 - Between Midnight and Dawn.wav

Pre-gap length 0:00:03.00

Peak level 77.7 %
Track quality 100.0 %
Test CRC 6BF0FFF5
Copy CRC 6BF0FFF5
Accurately ripped (confidence 1) [F0078CC4]
Copy OK

Track 11

Filename D:\EAC\Memphis Lord\11 - Blue and Lonesome.wav

Pre-gap length 0:00:02.00

Peak level 83.6 %
Track quality 100.0 %
Test CRC 6268AB15
Copy CRC 6268AB15
Accurately ripped (confidence 1) [A80BA705]
Copy OK

Track 12

Filename D:\EAC\Memphis Lord\12 - Misery.wav

Pre-gap length 0:00:02.00

Peak level 79.0 %
Track quality 100.0 %
Test CRC 2AC06540
Copy CRC 2AC06540
Accurately ripped (confidence 1) [020944B2]
Copy OK


All tracks accurately ripped

No errors occurred

End of status report



[CUETools log; Date: 2017. 02. 07. 15:28:03; Version: 2.1.6]
[CTDB TOCID: 6sU1CFvPPKRBGEtoN8LxfWJl3b4-] found.
Track | CTDB Status
1 | (1/1) Accurately ripped
2 | (1/1) Accurately ripped
3 | (1/1) Accurately ripped
4 | (1/1) Accurately ripped
5 | (1/1) Accurately ripped
6 | (1/1) Accurately ripped
7 | (1/1) Accurately ripped
8 | (1/1) Accurately ripped
9 | (1/1) Accurately ripped
10 | (1/1) Accurately ripped
11 | (1/1) Accurately ripped
12 | (1/1) Accurately ripped
[AccurateRip ID: 000f6162-008ffcea-9b080f0c] found.
Track [ CRC | V2 ] Status
01 [a72f59d2|dcfa718a] (2+0/2) Accurately ripped
02 [89f6d285|2f1c03b3] (2+0/2) Accurately ripped
03 [a79e92f3|804e0881] (2+0/2) Accurately ripped
04 [54fce710|26ff45aa] (2+0/2) Accurately ripped
05 [837bd748|2e1031d7] (2+0/2) Accurately ripped
06 [073ed2b8|53eccd71] (2+0/2) Accurately ripped
07 [18ba6ef9|b2f10ac7] (2+0/2) Accurately ripped
08 [3fc216cb|84288ffe] (2+0/2) Accurately ripped
09 [24373f57|4f7cebd7] (2+0/2) Accurately ripped
10 [f0078cc4|edc11d48] (2+0/2) Accurately ripped
11 [a80ba705|eb602b43] (2+0/2) Accurately ripped
12 [020944b2|0257746f] (2+0/2) Accurately ripped

Track Peak [ CRC32 ] [W/O NULL] [ LOG ]
– 86,9 [972D43D5] [48A32FC8]
01 84,4 [F32BE234] [BAC282F9] CRC32
02 86,9 [6F4CE1A0] [C2F60314] CRC32
03 75,6 [739AD345] [1115811F] CRC32
04 82,0 [046550D9] [C63751A4] CRC32
05 71,9 [FE112B9E] [6A168A84] CRC32
06 60,1 [BBE4EABC] [7F095F3E] CRC32
07 70,2 [BD99AD64] [0C5853F1] CRC32
08 77,2 [DD8A40B9] [4599A943] CRC32
09 80,9 [48D2C151] [6A219B04] CRC32
10 77,7 [6BF0FFF5] [32FD858B] CRC32
11 83,6 [6268AB15] [B1C44445] CRC32
12 79,0 [2AC06540] [3664EF98] CRC32


Thx to garet jax