Tags
Language
Tags

Memphis Slim & Willie Dixon - Aux Trois Mailletz (1963) [Reissue 1993]

Posted By:
Memphis Slim & Willie Dixon - Aux Trois Mailletz (1963) [Reissue 1993]

Memphis Slim & Willie Dixon - Aux Trois Mailletz (1963) [Reissue 1993]
EAC Rip | APE (image+.cue+log) - 246 MB | MP3 CBR 320 kbps (LAME 3.93) - 111 MB | Covers - 7 MB
Genre: Blues, Boogie-Woogie | RAR 3% Rec. | Label: Verve (519 729-2)

It is a blues date, with a fair amount of boogie-woogie. The two veterans, who had worked together previously, are joined by drummer Phillipe Combelle during the two 1962 sessions recorded at Les Trois Mailletz, complete with a typically out of tune piano and a fair amount of noise from the audience at times. The pianist's gruff voice dominates a fair amount of the performances, although most of the songs are Dixon's. The bassist steals the show during the opener, "Rocking and Rolling the House," with a fine solo. In fact, the only standard not written by either man is a campy miniature take of Big Bill Broonzy's "All by Myself." Blues fans will want up to pick up this live recording by two legendary musicians.
Tracklist:
01. Rock And Rolling The House
02. Baby Please Come Home
03. How Come You Do Me Like You Do
04. The Way She Loves A Man
05. New Way To Love
06. African Hunch With A Boogie Beat
07. Shame Pretty Girls
08. Baby, Baby, Baby
09. Do De Do
10. Cool Blooded
11. Just You And I
12. Pigalle Love
13. All By Myself

Total time: 48:20

Exact Audio Copy V0.99 prebeta 5 from 4. May 2009

EAC extraction logfile from 12. June 2010, 23:22

Memphis Slim & Willie Dixon / Aux 3 Mailletz

Used drive : ATAPI DVD D DH16D2P Adapter: 1 ID: 1

Read mode : Secure
Utilize accurate stream : Yes
Defeat audio cache : Yes
Make use of C2 pointers : No

Read offset correction : 6
Overread into Lead-In and Lead-Out : No
Fill up missing offset samples with silence : Yes
Delete leading and trailing silent blocks : No
Null samples used in CRC calculations : Yes
Used interface : Installed external ASPI interface

Used output format : Internal WAV Routines
Sample format : 44.100 Hz; 16 Bit; Stereo


TOC of the extracted CD

Track | Start | Length | Start sector | End sector
––––––––––––––––––––––––––––-
1 | 0:00.33 | 4:28.15 | 33 | 20147
2 | 4:28.48 | 2:16.30 | 20148 | 30377
3 | 6:45.03 | 4:59.07 | 30378 | 52809
4 | 11:44.10 | 3:07.58 | 52810 | 66892
5 | 14:51.68 | 5:30.00 | 66893 | 91642
6 | 20:21.68 | 3:34.67 | 91643 | 107759
7 | 23:56.60 | 3:24.23 | 107760 | 123082
8 | 27:21.08 | 3:04.10 | 123083 | 136892
9 | 30:25.18 | 2:40.47 | 136893 | 148939
10 | 33:05.65 | 5:37.18 | 148940 | 174232
11 | 38:43.08 | 2:54.57 | 174233 | 187339
12 | 41:37.65 | 3:58.45 | 187340 | 205234
13 | 45:36.35 | 1:43.60 | 205235 | 213019


Range status and errors

Selected range

Filename C:\Documents and Settings\marнa\Escritorio\IMБGENES\Memphis Slim & Willie Dixon - Aux 3 Mailletz\Memphis Slim & Willie Dixon - Aux 3 Mailletz.wav

Peak level 99.8 %
Range quality 100.0 %
Test CRC C0FD1CA7
Copy CRC C0FD1CA7
Copy OK

No errors occurred

End of status report

[CUETools log; Date: 12.06.2021 12:34:28; Version: 2.1.4]
Pregap length 00:00:33.
[CTDB TOCID: lOJCr5zRqhOtOMPs.fpYdvMoTzU-] found.
Track | CTDB Status
1 | (11/11) Accurately ripped
2 | (11/11) Accurately ripped
3 | (11/11) Accurately ripped
4 | (11/11) Accurately ripped
5 | (11/11) Accurately ripped
6 | (11/11) Accurately ripped
7 | (11/11) Accurately ripped
8 | (11/11) Accurately ripped
9 | (11/11) Accurately ripped
10 | (11/11) Accurately ripped
11 | (11/11) Accurately ripped
12 | (11/11) Accurately ripped
13 | (11/11) Accurately ripped
[AccurateRip ID: 0017c789-00ec8c59-c00b180d] found.
Track [ CRC | V2 ] Status
01 [feda512d|deca110c] (05+10/15) Accurately ripped
02 [60011a0f|3ec797bf] (05+10/15) Accurately ripped
03 [db0095ce|7dd24cfc] (05+10/15) Accurately ripped
04 [4b413bfa|888cf6c6] (05+10/15) Accurately ripped
05 [25d02406|eb6d96e3] (05+10/15) Accurately ripped
06 [e3351781|e3522752] (05+09/14) Accurately ripped
07 [1cac4ea2|a5911b58] (05+10/15) Accurately ripped
08 [20b0c6c8|7d83174c] (05+10/15) Accurately ripped
09 [7134fca0|eab739c5] (05+10/15) Accurately ripped
10 [83e610ac|772ffac1] (05+10/15) Accurately ripped
11 [771c2c1f|9c388147] (05+10/15) Accurately ripped
12 [59cd3f5a|5ae01f66] (05+10/15) Accurately ripped
13 [a6c09b3c|b40085b5] (05+10/15) Accurately ripped

Track Peak [ CRC32 ] [W/O NULL] [ LOG ]
– 99,8 [C0FD1CA7] [B331FA6D] CRC32
01 88,9 [AB960338] [642371A4]
02 85,8 [074046F2] [F8C6F78F]
03 84,3 [BA204EF6] [A3E8C639]
04 99,8 [F1A1038F] [17183495]
05 83,5 [23C298CB] [DA62B822]
06 85,0 [DB8D9C94] [BE159008]
07 71,8 [9E3C1E20] [5CBDA2EC]
08 83,9 [00CE548F] [5A745B51]
09 81,3 [FBAC8D4C] [809BE150]
10 74,8 [82B0CB1F] [322EA196]
11 76,7 [BC7B7429] [99AB2820]
12 81,4 [A62FE0E5] [C0FD789E]
13 89,1 [5D4EF5EE] [AB173E30]

Thanks to TheWarrior

See also: