Tags
Language
Tags

Mezzoforte - No Limits (1985) {ZYX}

Posted By: tiburon
Mezzoforte - No Limits (1985) {ZYX}

Mezzoforte - No Limits (1985) {ZYX}
EAC 0.95b3 | FLAC tracks level 8 | Cue+Log+M3U | Full Scans 400dpi | 323MB + 5% Recovery
MP3 CBR 320 Kbps | 101MB + 5% Recovery
Genre: Jazz-Funk

"No Limits" is the seventh, and one of the most successful albums of Mezzoforte. He contains the selftitle top hit with vocalist Noel McCalla.
Track List
01. Ice Breaker
02. No Limit
03. Joyride
04. Evolution
05. Nothing Lasts Forever
06. E.G. Blues
07. Another Day
08. Crystal Rain

musicians
Fridrik Karlsson - guitar synthesizers
Eythor Gunnarsson - keyboards, synthesizers
Gulli Briem - drums, percussions
Johann Asmundsson - bass

additional musicians:
Noel McCalla - lead vocal
David O'Higgins - tenor sax
Simon Morton - percussion
Frank Ricotti - percussion
Jeroen De Rijk - percussion
Tracy Ackerman - backing vocals
Mel Wesson - synthesizer programming
Chris Cameron - Horn Arrangements
Phil Todd - alto sax
Nigel Wright - Kurzweil
Nick North - Kurzweil string arr.
Horn Section:
Stuart Brooks - trumpet
Bill Eldridge - trumpet
Phil Todd - alto saxes
Martin Dobson - saxes
Neil Sidwell - trombone

Produced by Mezzoforte


EAC extraction logfile from 26. November 2006, 11:57 for CD
Mezzoforte / No Limits

Used drive : PLEXTOR DVDR PX-716A Adapter: 1 ID: 0
Read mode : Secure with NO C2, accurate stream, disable cache
Read offset correction : 30
Overread into Lead-In and Lead-Out : No

Used output format : C:\Programmi\Exact Audio Copy\flac-1.1.2-win\bin\flac.exe (User Defined Encoder)
32 kBit/s
Additional command line options : -8 -V %s

Other options :
Fill up missing offset samples with silence : Yes
Delete leading and trailing silent blocks : No
Installed external ASPI interface


Track 1
Filename F:\[MyRip]\01 - Icebreaker.wav

Pre-gap length 0:00:02.00

Peak level 94.9 %
Track quality 100.0 %
Test CRC 30042D08
Copy CRC 30042D08
Copy OK

Track 2
Filename F:\[MyRip]\02 - No Limit.wav

Pre-gap length 0:00:01.74

Peak level 94.9 %
Track quality 100.0 %
Test CRC 5851003D
Copy CRC 5851003D
Copy OK

Track 3
Filename F:\[MyRip]\03 - Joyride.wav

Pre-gap length 0:00:01.74

Peak level 94.9 %
Track quality 100.0 %
Test CRC CD77F9F4
Copy CRC CD77F9F4
Copy OK

Track 4
Filename F:\[MyRip]\04 - Evolution.wav

Pre-gap length 0:00:01.74

Peak level 94.9 %
Track quality 99.9 %
Test CRC 593950D5
Copy CRC 593950D5
Copy OK

Track 5
Filename F:\[MyRip]\05 - Nothing Lasts Forever.wav

Pre-gap length 0:00:02.01

Peak level 94.9 %
Track quality 100.0 %
Test CRC 04EEDD09
Copy CRC 04EEDD09
Copy OK

Track 6
Filename F:\[MyRip]\06 - E.G. Blues.wav

Pre-gap length 0:00:01.74

Peak level 94.9 %
Track quality 100.0 %
Test CRC 2223AE08
Copy CRC 2223AE08
Copy OK

Track 7
Filename F:\[MyRip]\07 - Another Day.wav

Pre-gap length 0:00:01.74

Peak level 94.9 %
Track quality 100.0 %
Test CRC 544F6139
Copy CRC 544F6139
Copy OK

Track 8
Filename F:\[MyRip]\08 - Crystal Rain.wav

Pre-gap length 0:00:01.74

Peak level 94.9 %
Track quality 100.0 %
Test CRC 7A88CD7D
Copy CRC 7A88CD7D
Copy OK

No errors occured


End of status report


––––––––––––––––––––––––––––––––––––––––
Analyzed: Mezzoforte / No Limits
––––––––––––––––––––––––––––––––––––––––

DR Peak RMS Duration Track
––––––––––––––––––––––––––––––––––––––––
DR12 -0.45 dB -14.35 dB 4:09 01-Icebreaker
DR12 -0.45 dB -13.98 dB 5:23 02-No Limit
DR14 -0.45 dB -15.64 dB 4:39 03-Joyride
DR12 -0.45 dB -16.56 dB 7:37 04-Evolution
DR11 -0.45 dB -13.59 dB 4:48 05-Nothing Lasts Forever
DR13 -0.45 dB -14.99 dB 6:15 06-E.G. Blues
DR12 -0.45 dB -14.38 dB 5:03 07-Another Day
DR14 -0.45 dB -16.42 dB 5:41 08-Crystal Rain
––––––––––––––––––––––––––––––––––––––––

Number of tracks: 8
Official DR value: DR12

Samplerate: 44100 Hz
Channels: 2
Bits per sample: 16
Bitrate: 794 kbps
Codec: FLAC
================================================================================

Mezzoforte - No Limits (1985) {ZYX}
Mezzoforte - No Limits (1985) {ZYX}
Mezzoforte - No Limits (1985) {ZYX}


Thanks to the original ripper