Subcategories

Michala Petri - The art of the recorder: Vivaldi, Handel, Telemann, Sammartini [4CDs] (2007)

Posted By: ArlegZ
Michala Petri - The art of the recorder: Vivaldi, Handel, Telemann, Sammartini [4CDs] (2007)

Michala Petri - The art of the recorder: Vivaldi, Handel, Telemann, Sammartini (2007)
EAC | FLAC | Image (Cue & Log) ~ 943 Mb | Total time: 186:05 | Scans included
Classical | Label: DECCA | # 475 8464 | Recorded: 1979, 1982, 1984

Denmark's Michala Petri has continued to dominate the modest but persistent recorder "scene" despite the emergence of a host of younger recorder players from the ranks of Dutch-trained historical-instrument specialists. Collecting a group of her 1970s and 1980s recordings, as has been done here, is an eminently justifiable enterprise, for it was these recordings whose laserlike intonation, whip-smart ornamentation, and all-around attractiveness that caught the attention of listeners in the first place. Petri uncovered and recorded a good deal of Baroque repertory for the instruments, recording it with the likes of England's Academy of St. Martin-in-the-Fields. Contemporary performances of the Italian concertos here may have a bit more zip, but actually the group serves as a nicely restrained foil for Petri, who can easily hold the spotlight all by herself. Her sheer technical facility continues to amaze in the little-known French works of the eighteenth century mixed in the program. About the only complaint is the short shrift given to contemporary music, which Petri has championed energetically, both in Denmark and internationally. Despite the inclusion in the booklet of an entire section devoted to the twentieth century, the only contemporary work included is Gordon Jacob's Suite for recorder and strings – an explicitly neo-Baroque work that is not even typical of the music Petri has commissioned for the instrument. Nevertheless, all the music in this box is worth having and hearing. Listen to the sharp registral leaps in the Allegro molto finale of Vivaldi's Concerto in C for flautino, RV 443 (CD 1, track 3): nobody does these as crisply as Petri does. A nice resource for those who enjoy Baroque recorder music.
–James Manheim

Performer:
Michala Petri, recorders
George Malcolm, harpsichord (CD4)
Academy of St Martin in the Fields
Iona Brown, direction (CD1)
Kenneth Sillito, direction (CDs 2 & 3)

Track List:
CD1:
Antonio Vivaldi (1678–1741)
Flautino Concerto In C Major, RV 443
01. Allegro
02. Largo
03. Allegro Molto
Giuseppe Sammartini (1693–1750)
Concerto For Descant Recorder, Strings, And Continuo In F
04. Allegro
05. Siciliano
06. Allegro Assai
Georg Philipp Telemann (1681–1767)
Concerto For Treble Recorder, Strings And Continuo In C Major, TWV 51:C1
07. Allegretto
08. Allegro
09. Andante
10. Tempo di Minuet
George Frideric Handel (1685–1759)
Concerto For Treble Recorder, Strings, And Continuo In F Major, HWV 369
11. Larghetto—Allegro
12. Alla Siciliana—Presto
CD2:
William Babell (1690–1723)
Recorder Concerto In C, Op. 3, No. 1
01. Allegro
02. Adagio
03. Allegro
George Frideric Handel (1685–1759)
Recorder Concerto In B Flat, Op. 4, No. 6 HWV 294 Arr. From Organ Concerto No. 6, HWV 294
04. Andante—Allegro
05. Larghetto
06. Allegro Moderato
John Baston (1708–1739)
Recorder Concerto No. 2 In D
07. Allegro
08. Adagio
09. Presto
Gordon Jacob (1895–1984)
Suite For Recorder And Strings
10. Prelude (Adagio Ma Poco Con Moto)
11. English Dance (Allegro Molto)
12. Lament (Adagio Espressivo)
13. Burlesca Alla Rumba (Allegro Gioioso)
14. Pavane (Adagio)
15. Introduction And Cadenza (Andante Sostenuto)
16. Tarantella (Presto Con Fuoco)
CD3:
Alessandro Marcello (1673–1747)
Oboe Concerto In D Minor, S.Z 799
01. Andante E Spiccato
02. Adagio
03. Presto
Antonio Vivaldi (1678–1741)
Flautino Concerto In C, R. 444
04. Allegro Non Molto
05. Largo
06. Allegro Molto
Georg Philipp Telemann (1681–1767)
Concerto For Recorder, Strings And Continuo In F
07. Affettuoso
08. Allegro
09. Adagio
10. Menuet I-II
Jacques-Christophe Naudot (1690–1762)
Recorder Concerto In G, Op. 17, No. 5 Arr. From Flute Concerto In G Major, Op. 17 No. 5
11. Allegro
12. Adagio
13. Allegro
CD4:
Antonio Vivaldi (1678–1741)
Recorder Sonata In G Minor, RV 58 (Il Pastor Fido, Op. 13/6)
01. Vivace—Adagio
02. Alla Breve (Fuga Da Capella)
03. Largo
04. Allegro Ma Non Presto
Arcangelo Corelli (1653–1713)
Violin Sonata In A Major, Op. 5 No. 9 Arr. For Recorder And Continuo
05. Preludio (Largo)
06. Giga (Allegro)
07. Adagio
08. Tempo Di Gavotta (Allegro)
Diogenio Bigaglia (1676–1745)
Sonata For Recorder And Continuo In A Minor
09. Adagio
10. Allegro
11. Tempo Di Minuetto
12. Allegro
Giovanni Battista Bononcini (1670–1747)
Divertimento Da Camera No. 6 For Recorder And Continuo In C Minor
13. Lento
14. Con Spirito
15. Largo
16. Vivace
Giuseppe Sammartini (1693–1750)
Sonata For Recorder And Continuo In G, Op. 13, No. 4
17. Andante
18. Minuetto
19. Adagio
20. Allegro
Benedetto Marcello (1686–1739)
Sonata For Recorder And Continuo In F, Op. 2, No. 1
21. Adagio
22. Allegro
23. Largo
24. Allegro


Exact Audio Copy V1.3 from 2. September 2016

EAC extraction logfile from 29. May 2019, 1:19

Michala Petri, Iona Brown / The Art of the Recorder (Disc 1)

Used drive : ATAPI iHAS124 F Adapter: 1 ID: 0

Read mode : Secure
Utilize accurate stream : Yes
Defeat audio cache : Yes
Make use of C2 pointers : No

Read offset correction : 6
Overread into Lead-In and Lead-Out : No
Fill up missing offset samples with silence : Yes
Delete leading and trailing silent blocks : No
Null samples used in CRC calculations : Yes
Used interface : Native Win32 interface for Win NT & 2000

Used output format : User Defined Encoder
Selected bitrate : 1024 kBit/s
Quality : High
Add ID3 tag : No
Command line compressor : C:\Program Files (x86)\Exact Audio Copy\FLAC\FLAC.EXE
Additional command line options : -6 -V -T "ARTIST=%artist%" -T "TITLE=%title%" -T "ALBUM=%albumtitle%" -T "DATE=%year%" -T "TRACKNUMBER=%tracknr%" -T "GENRE=%genre%" -T "COMMENT=%comment%" -T "BAND=%albuminterpret%" -T "ALBUMARTIST=%albuminterpret%" -T "COMPOSER=%composer%" %haslyrics%–tag-from-file=LYRICS="%lyricsfile%"%haslyrics% -T "DISCNUMBER=%cdnumber%" -T "TOTALDISCS=%totalcds%" -T "TOTALTRACKS=%numtracks%" %hascover%–picture="%coverfile%"%hascover% %source% -o %dest%


TOC of the extracted CD

Track | Start | Length | Start sector | End sector
––––––––––––––––––––––––––––-
1 | 0:00.00 | 3:53.30 | 0 | 17504
2 | 3:53.30 | 3:54.01 | 17505 | 35055
3 | 7:47.31 | 2:56.06 | 35056 | 48261
4 | 10:43.37 | 3:38.13 | 48262 | 64624
5 | 14:21.50 | 5:06.02 | 64625 | 87576
6 | 19:27.52 | 3:53.21 | 87577 | 105072
7 | 23:20.73 | 3:38.34 | 105073 | 121456
8 | 26:59.32 | 3:17.58 | 121457 | 136289
9 | 30:17.15 | 4:24.50 | 136290 | 156139
10 | 34:41.65 | 4:03.25 | 156140 | 174389
11 | 38:45.15 | 3:55.08 | 174390 | 192022
12 | 42:40.23 | 3:42.37 | 192023 | 208709


Range status and errors

Selected range

Filename C:\EACRip\RÓŻNE\The Art of the Recorder (Michala Petri, ASMF) (2007 [1980-85])\CD1\The Art of the Recorder (Disc 1) - Michala Petri, ASMF, Iona Brown.wav

Peak level 100.0 %
Extraction speed 8.0 X
Range quality 99.9 %
Test CRC 1BFB2DA4
Copy CRC 1BFB2DA4
Copy OK

No errors occurred


AccurateRip summary

Track 1 accurately ripped (confidence 4) [F5A5796C] (AR v2)
Track 2 accurately ripped (confidence 4) [23A1CDB5] (AR v2)
Track 3 accurately ripped (confidence 4) [FC397D9F] (AR v2)
Track 4 accurately ripped (confidence 4) [ED3E43A7] (AR v2)
Track 5 accurately ripped (confidence 4) [C65B6FA8] (AR v2)
Track 6 accurately ripped (confidence 4) [40EA4FA3] (AR v2)
Track 7 accurately ripped (confidence 4) [A7994CCF] (AR v2)
Track 8 accurately ripped (confidence 4) [A73AC59B] (AR v2)
Track 9 accurately ripped (confidence 4) [835B283D] (AR v2)
Track 10 accurately ripped (confidence 4) [CC735A27] (AR v2)
Track 11 accurately ripped (confidence 4) [3479D34E] (AR v2)
Track 12 accurately ripped (confidence 4) [620D0A28] (AR v2)

All tracks accurately ripped

End of status report

–– CUETools DB Plugin V2.1.6

[CTDB TOCID: 2rZoAZVRnZEpTdH4cqznseDmPVM-] found
Submit result: 2rZoAZVRnZEpTdH4cqznseDmPVM- has been confirmed
Track | CTDB Status
1 | (12/13) Accurately ripped
2 | (13/13) Accurately ripped
3 | (13/13) Accurately ripped
4 | (13/13) Accurately ripped
5 | (13/13) Accurately ripped
6 | (13/13) Accurately ripped
7 | (13/13) Accurately ripped
8 | (13/13) Accurately ripped
9 | (13/13) Accurately ripped
10 | (13/13) Accurately ripped
11 | (13/13) Accurately ripped
12 | (11/13) Accurately ripped


==== Log checksum A089D7721418B19DEFB7A8B07BED3639D0DB29A595CCF6AEB8118525B4689160 ====


Exact Audio Copy V1.3 from 2. September 2016

EAC extraction logfile from 29. May 2019, 1:48

Michala Petri, Kenneth Sillito / The Art of the Recorder (Disc 2)

Used drive : ATAPI iHAS124 F Adapter: 1 ID: 0

Read mode : Secure
Utilize accurate stream : Yes
Defeat audio cache : Yes
Make use of C2 pointers : No

Read offset correction : 6
Overread into Lead-In and Lead-Out : No
Fill up missing offset samples with silence : Yes
Delete leading and trailing silent blocks : No
Null samples used in CRC calculations : Yes
Used interface : Native Win32 interface for Win NT & 2000

Used output format : User Defined Encoder
Selected bitrate : 1024 kBit/s
Quality : High
Add ID3 tag : No
Command line compressor : C:\Program Files (x86)\Exact Audio Copy\FLAC\FLAC.EXE
Additional command line options : -6 -V -T "ARTIST=%artist%" -T "TITLE=%title%" -T "ALBUM=%albumtitle%" -T "DATE=%year%" -T "TRACKNUMBER=%tracknr%" -T "GENRE=%genre%" -T "COMMENT=%comment%" -T "BAND=%albuminterpret%" -T "ALBUMARTIST=%albuminterpret%" -T "COMPOSER=%composer%" %haslyrics%–tag-from-file=LYRICS="%lyricsfile%"%haslyrics% -T "DISCNUMBER=%cdnumber%" -T "TOTALDISCS=%totalcds%" -T "TOTALTRACKS=%numtracks%" %hascover%–picture="%coverfile%"%hascover% %source% -o %dest%


TOC of the extracted CD

Track | Start | Length | Start sector | End sector
––––––––––––––––––––––––––––-
1 | 0:00.33 | 2:11.50 | 33 | 9907
2 | 2:12.08 | 2:00.55 | 9908 | 18962
3 | 4:12.63 | 3:06.50 | 18963 | 32962
4 | 7:19.38 | 4:36.15 | 32963 | 53677
5 | 11:55.53 | 3:56.17 | 53678 | 71394
6 | 15:51.70 | 2:18.65 | 71395 | 81809
7 | 18:10.60 | 2:06.73 | 81810 | 91332
8 | 20:17.58 | 2:10.65 | 91333 | 101147
9 | 22:28.48 | 2:00.02 | 101148 | 110149
10 | 24:28.50 | 2:35.65 | 110150 | 121839
11 | 27:04.40 | 1:08.03 | 121840 | 126942
12 | 28:12.43 | 4:04.22 | 126943 | 145264
13 | 32:16.65 | 1:37.70 | 145265 | 152609
14 | 33:54.60 | 3:20.55 | 152610 | 167664
15 | 37:15.40 | 3:48.28 | 167665 | 184792
16 | 41:03.68 | 2:16.15 | 184793 | 195007


Range status and errors

Selected range

Filename C:\EACRip\RÓŻNE\The Art of the Recorder (Michala Petri, ASMF) (2007 [1980-85])\CD2\The Art of the Recorder (Disc 2) - Michala Petri, ASMF, Kenneth Sillito.wav

Peak level 100.0 %
Extraction speed 8.1 X
Range quality 100.0 %
Test CRC 9CD86E19
Copy CRC 9CD86E19
Copy OK

No errors occurred


AccurateRip summary

Track 1 accurately ripped (confidence 4) [88F26A50] (AR v2)
Track 2 accurately ripped (confidence 4) [F19D6DC8] (AR v2)
Track 3 accurately ripped (confidence 4) [A5F744B1] (AR v2)
Track 4 accurately ripped (confidence 4) [E76E6A18] (AR v2)
Track 5 accurately ripped (confidence 4) [3806B2D5] (AR v2)
Track 6 accurately ripped (confidence 4) [A7AA05E7] (AR v2)
Track 7 accurately ripped (confidence 4) [47A4B2CF] (AR v2)
Track 8 accurately ripped (confidence 4) [24D67125] (AR v2)
Track 9 accurately ripped (confidence 4) [7BEAD435] (AR v2)
Track 10 accurately ripped (confidence 4) [C4768C37] (AR v2)
Track 11 accurately ripped (confidence 4) [76F312CA] (AR v2)
Track 12 accurately ripped (confidence 4) [07719743] (AR v2)
Track 13 accurately ripped (confidence 4) [2CB3100B] (AR v2)
Track 14 accurately ripped (confidence 4) [E198D750] (AR v2)
Track 15 accurately ripped (confidence 4) [C4F7024C] (AR v2)
Track 16 accurately ripped (confidence 3) [1E312541] (AR v2)

All tracks accurately ripped

End of status report

–– CUETools DB Plugin V2.1.6

[CTDB TOCID: eR7RQ8QfhChYxn5LMMOCvsZFe38-] found
Submit result: eR7RQ8QfhChYxn5LMMOCvsZFe38- has been confirmed
Track | CTDB Status
1 | (9/9) Accurately ripped
2 | (9/9) Accurately ripped
3 | (9/9) Accurately ripped
4 | (9/9) Accurately ripped
5 | (9/9) Accurately ripped
6 | (9/9) Accurately ripped
7 | (9/9) Accurately ripped
8 | (9/9) Accurately ripped
9 | (8/9) Accurately ripped
10 | (9/9) Accurately ripped
11 | (9/9) Accurately ripped
12 | (9/9) Accurately ripped
13 | (9/9) Accurately ripped
14 | (9/9) Accurately ripped
15 | (9/9) Accurately ripped
16 | (9/9) Accurately ripped


==== Log checksum 2DACA06199A12E898FBC05E05A6F092031B52A5BDF2E94ABFAC6CD68D2036BC9 ====


Exact Audio Copy V1.3 from 2. September 2016

EAC extraction logfile from 29. May 2019, 2:20

Michala Petri, Kenneth Sillito / The Art of the Recorder (Disc 3)

Used drive : ATAPI iHAS124 F Adapter: 1 ID: 0

Read mode : Secure
Utilize accurate stream : Yes
Defeat audio cache : Yes
Make use of C2 pointers : No

Read offset correction : 6
Overread into Lead-In and Lead-Out : No
Fill up missing offset samples with silence : Yes
Delete leading and trailing silent blocks : No
Null samples used in CRC calculations : Yes
Used interface : Native Win32 interface for Win NT & 2000

Used output format : User Defined Encoder
Selected bitrate : 1024 kBit/s
Quality : High
Add ID3 tag : No
Command line compressor : C:\Program Files (x86)\Exact Audio Copy\FLAC\FLAC.EXE
Additional command line options : -6 -V -T "ARTIST=%artist%" -T "TITLE=%title%" -T "ALBUM=%albumtitle%" -T "DATE=%year%" -T "TRACKNUMBER=%tracknr%" -T "GENRE=%genre%" -T "COMMENT=%comment%" -T "BAND=%albuminterpret%" -T "ALBUMARTIST=%albuminterpret%" -T "COMPOSER=%composer%" %haslyrics%–tag-from-file=LYRICS="%lyricsfile%"%haslyrics% -T "DISCNUMBER=%cdnumber%" -T "TOTALDISCS=%totalcds%" -T "TOTALTRACKS=%numtracks%" %hascover%–picture="%coverfile%"%hascover% %source% -o %dest%


TOC of the extracted CD

Track | Start | Length | Start sector | End sector
––––––––––––––––––––––––––––-
1 | 0:00.33 | 3:06.00 | 33 | 13982
2 | 3:06.33 | 4:15.00 | 13983 | 33107
3 | 7:21.33 | 3:45.00 | 33108 | 49982
4 | 11:06.33 | 4:15.00 | 49983 | 69107
5 | 15:21.33 | 2:44.70 | 69108 | 81477
6 | 18:06.28 | 2:56.05 | 81478 | 94682
7 | 21:02.33 | 3:14.37 | 94683 | 109269
8 | 24:16.70 | 3:49.38 | 109270 | 126482
9 | 28:06.33 | 2:39.25 | 126483 | 138432
10 | 30:45.58 | 3:17.50 | 138433 | 153257
11 | 34:03.33 | 4:11.00 | 153258 | 172082
12 | 38:14.33 | 4:08.70 | 172083 | 190752
13 | 42:23.28 | 2:54.00 | 190753 | 203802


Range status and errors

Selected range

Filename C:\EACRip\RÓŻNE\The Art of the Recorder (Michala Petri, ASMF) (2007 [1980-85])\CD3\The Art of the Recorder (Disc 3) - Michala Petri, ASMF, Kenneth Sillito.wav

Peak level 78.7 %
Extraction speed 8.2 X
Range quality 100.0 %
Test CRC 6F79EBEE
Copy CRC 6F79EBEE
Copy OK

No errors occurred


AccurateRip summary

Track 1 accurately ripped (confidence 5) [B61B9C06] (AR v2)
Track 2 accurately ripped (confidence 5) [0A93A1DA] (AR v2)
Track 3 accurately ripped (confidence 5) [0C48A5FD] (AR v2)
Track 4 accurately ripped (confidence 5) [5E0E76B6] (AR v2)
Track 5 accurately ripped (confidence 5) [A913DE8F] (AR v2)
Track 6 accurately ripped (confidence 5) [BC550AE4] (AR v2)
Track 7 accurately ripped (confidence 5) [D89387BD] (AR v2)
Track 8 accurately ripped (confidence 5) [62EBBFCC] (AR v2)
Track 9 accurately ripped (confidence 5) [D1BB3792] (AR v2)
Track 10 accurately ripped (confidence 5) [44E86476] (AR v2)
Track 11 accurately ripped (confidence 5) [E412F4C0] (AR v2)
Track 12 accurately ripped (confidence 5) [D15139C7] (AR v2)
Track 13 accurately ripped (confidence 5) [D003D336] (AR v2)

All tracks accurately ripped

End of status report

–– CUETools DB Plugin V2.1.6

[CTDB TOCID: I1lV6t6B1RfMm5EUx6OFdXerxqE-] found
Submit result: I1lV6t6B1RfMm5EUx6OFdXerxqE- has been confirmed
Track | CTDB Status
1 | (5/5) Accurately ripped
2 | (5/5) Accurately ripped
3 | (5/5) Accurately ripped
4 | (5/5) Accurately ripped
5 | (5/5) Accurately ripped
6 | (5/5) Accurately ripped
7 | (5/5) Accurately ripped
8 | (5/5) Accurately ripped
9 | (5/5) Accurately ripped
10 | (5/5) Accurately ripped
11 | (5/5) Accurately ripped
12 | (5/5) Accurately ripped
13 | (5/5) Accurately ripped


==== Log checksum 04C20E303B6D4991FAD58F88B61C4F15DEEEC4AF6ED53D01E0D42CCE3BD1E9E4 ====


Exact Audio Copy V1.3 from 2. September 2016

EAC extraction logfile from 29. May 2019, 2:49

Michala Petri, George Malcolm / The Art of the Recorder (Disc 4)

Used drive : ATAPI iHAS124 F Adapter: 1 ID: 0

Read mode : Secure
Utilize accurate stream : Yes
Defeat audio cache : Yes
Make use of C2 pointers : No

Read offset correction : 6
Overread into Lead-In and Lead-Out : No
Fill up missing offset samples with silence : Yes
Delete leading and trailing silent blocks : No
Null samples used in CRC calculations : Yes
Used interface : Native Win32 interface for Win NT & 2000

Used output format : User Defined Encoder
Selected bitrate : 1024 kBit/s
Quality : High
Add ID3 tag : No
Command line compressor : C:\Program Files (x86)\Exact Audio Copy\FLAC\FLAC.EXE
Additional command line options : -6 -V -T "ARTIST=%artist%" -T "TITLE=%title%" -T "ALBUM=%albumtitle%" -T "DATE=%year%" -T "TRACKNUMBER=%tracknr%" -T "GENRE=%genre%" -T "COMMENT=%comment%" -T "BAND=%albuminterpret%" -T "ALBUMARTIST=%albuminterpret%" -T "COMPOSER=%composer%" %haslyrics%–tag-from-file=LYRICS="%lyricsfile%"%haslyrics% -T "DISCNUMBER=%cdnumber%" -T "TOTALDISCS=%totalcds%" -T "TOTALTRACKS=%numtracks%" %hascover%–picture="%coverfile%"%hascover% %source% -o %dest%


TOC of the extracted CD

Track | Start | Length | Start sector | End sector
––––––––––––––––––––––––––––-
1 | 0:00.33 | 1:28.50 | 33 | 6682
2 | 1:29.08 | 1:52.00 | 6683 | 15082
3 | 3:21.08 | 1:15.25 | 15083 | 20732
4 | 4:36.33 | 4:03.00 | 20733 | 38957
5 | 8:39.33 | 2:33.37 | 38958 | 50469
6 | 11:12.70 | 2:52.38 | 50470 | 63407
7 | 14:05.33 | 0:32.10 | 63408 | 65817
8 | 14:37.43 | 2:46.65 | 65818 | 78332
9 | 17:24.33 | 1:54.00 | 78333 | 86882
10 | 19:18.33 | 1:54.25 | 86883 | 95457
11 | 21:12.58 | 2:09.25 | 95458 | 105157
12 | 23:22.08 | 1:55.25 | 105158 | 113807
13 | 25:17.33 | 2:36.37 | 113808 | 125544
14 | 27:53.70 | 1:02.00 | 125545 | 130194
15 | 28:55.70 | 1:48.38 | 130195 | 138332
16 | 30:44.33 | 2:02.00 | 138333 | 147482
17 | 32:46.33 | 3:10.00 | 147483 | 161732
18 | 35:56.33 | 1:58.00 | 161733 | 170582
19 | 37:54.33 | 1:00.00 | 170583 | 175082
20 | 38:54.33 | 3:25.00 | 175083 | 190457
21 | 42:19.33 | 2:48.37 | 190458 | 203094
22 | 45:07.70 | 2:32.38 | 203095 | 214532
23 | 47:40.33 | 1:40.37 | 214533 | 222069
24 | 49:20.70 | 2:09.38 | 222070 | 231782


Range status and errors

Selected range

Filename C:\EACRip\RÓŻNE\The Art of the Recorder (Michala Petri, ASMF) (2007 [1980-85])\CD4\The Art of the Recorder (Disc 4) - Michala Petri, George Malcolm.wav

Peak level 79.2 %
Extraction speed 8.4 X
Range quality 100.0 %
Test CRC 51BE7223
Copy CRC 51BE7223
Copy OK

No errors occurred


AccurateRip summary

Track 1 accurately ripped (confidence 7) [1759A5E9] (AR v2)
Track 2 accurately ripped (confidence 7) [3A603CF4] (AR v2)
Track 3 accurately ripped (confidence 7) [22468B14] (AR v2)
Track 4 accurately ripped (confidence 7) [B26E8156] (AR v2)
Track 5 accurately ripped (confidence 7) [B9D81B38] (AR v2)
Track 6 accurately ripped (confidence 7) [E2651286] (AR v2)
Track 7 accurately ripped (confidence 7) [CD42ED16] (AR v2)
Track 8 accurately ripped (confidence 7) [5F05325D] (AR v2)
Track 9 accurately ripped (confidence 7) [EC580D08] (AR v2)
Track 10 accurately ripped (confidence 7) [22B9F0FC] (AR v2)
Track 11 accurately ripped (confidence 7) [2A1D22AE] (AR v2)
Track 12 accurately ripped (confidence 7) [2AF140FB] (AR v2)
Track 13 accurately ripped (confidence 7) [A0928F88] (AR v2)
Track 14 accurately ripped (confidence 7) [B93CF28E] (AR v2)
Track 15 accurately ripped (confidence 7) [71291140] (AR v2)
Track 16 accurately ripped (confidence 7) [78796BAC] (AR v2)
Track 17 accurately ripped (confidence 7) [D7DEAAEE] (AR v2)
Track 18 accurately ripped (confidence 7) [B7259635] (AR v2)
Track 19 accurately ripped (confidence 7) [B5E5ECB4] (AR v2)
Track 20 accurately ripped (confidence 7) [9026DA93] (AR v2)
Track 21 accurately ripped (confidence 7) [07BF43F1] (AR v2)
Track 22 accurately ripped (confidence 7) [BB97FFAB] (AR v2)
Track 23 accurately ripped (confidence 7) [8E9D0156] (AR v2)
Track 24 accurately ripped (confidence 7) [5D007BDD] (AR v2)

All tracks accurately ripped

End of status report

–– CUETools DB Plugin V2.1.6

[CTDB TOCID: jOZlTkrnONDLB4irCjsK8RoIfLU-] found
Submit result: jOZlTkrnONDLB4irCjsK8RoIfLU- has been confirmed
Track | CTDB Status
1 | (33/34) Accurately ripped
2 | (33/34) Accurately ripped
3 | (33/34) Accurately ripped
4 | (33/34) Accurately ripped
5 | (33/34) Accurately ripped
6 | (33/34) Accurately ripped
7 | (33/34) Accurately ripped
8 | (33/34) Accurately ripped
9 | (33/34) Accurately ripped
10 | (33/34) Accurately ripped
11 | (33/34) Accurately ripped
12 | (32/34) Accurately ripped
13 | (33/34) Accurately ripped
14 | (33/34) Accurately ripped
15 | (33/34) Accurately ripped
16 | (33/34) Accurately ripped
17 | (33/34) Accurately ripped
18 | (33/34) Accurately ripped
19 | (33/34) Accurately ripped
20 | (33/34) Accurately ripped
21 | (33/34) Accurately ripped
22 | (33/34) Accurately ripped
23 | (33/34) Accurately ripped
24 | (34/34) Accurately ripped


==== Log checksum 4C949F372C1C840ADA5C659263C11EB0AE089B6A01D122BC5AD506CE713A9438 ====

Michala Petri - The art of the recorder: Vivaldi, Handel, Telemann, Sammartini [4CDs] (2007)

Thanks to the original releaser