Subcategories

Michel Petrucciani / Eddy Louiss - Conference De Presse Vol. 1 (1994)

Posted By: tiburon
Michel Petrucciani / Eddy Louiss - Conference De Presse Vol. 1 (1994)

Michel Petrucciani / Eddy Louiss - Conference De Presse Vol. 1 (1994)
EAC 1.0b2 | FLAC tracks | Cue+Log+M3U+MD5 | Full Scans 300dpi | 275MB + 5% Recovery
MP3 CBR 320 Kbps | 154MB + 5% Recovery
Genre: Jazz, Hard-Bop
Michel Petrucciani / Eddy Louiss - Conference De Presse Vol. 1 (1994)

Organist Eddy Louiss and pianist Michel Petrucciani perform a set of boppish duets on this intriguing and successful effort. Louiss and Petrucciani (who brought in "I Wrote You a Song" and "Simply Bop") contributed two songs apiece and co-wrote "Jean-Philippe Herbien." In addition, they perform "All the Things You Are," "So What," and "These Foolish Things." The blend between Louiss' organ and Petrucciani's piano is quite attractive, and they work together quite well, leaving enough space for their individual personalities to emerge yet forming a highly appealing ensemble sound.
Track List
01. Les Grelots 6:42
02. Jean-Philippe Herbien 10:45
03. All The Things You Are 6:40
04. I Wrote You A Song 8:10
05. So What 9:55
06. These Foolish Things 9:55
07. Amesha 6:30
08. Simply Bop 4:30

Recorded live at Petit Journal Montparnasse - Paris

musicians
Michel Petrucciani - Steinway pianos
Eddy Louiss - Hammond organ

Produced by Francis Dreyfus and Yves Chamberland


Exact Audio Copy V1.0 beta 2 from 29. April 2011

EAC extraction logfile from 26. June 2012, 12:06

Michel Petrucciani-Eddy Louiss / Conference De Presse Vol 1

Used drive : PLEXTOR CD-R PREMIUM2 Adapter: 1 ID: 1

Read mode : Secure
Utilize accurate stream : Yes
Defeat audio cache : Yes
Make use of C2 pointers : No

Read offset correction : 30
Overread into Lead-In and Lead-Out : No
Fill up missing offset samples with silence : Yes
Delete leading and trailing silent blocks : No
Null samples used in CRC calculations : Yes
Used interface : Installed external ASPI interface
Gap handling : Appended to previous track

Used output format : User Defined Encoder
Selected bitrate : 256 kBit/s
Quality : High
Add ID3 tag : No
Command line compressor : C:\Programmi\eac-1.00\Flac\flac.exe
Additional command line options : -8 -V -T "ARTIST=%artist%" -T "TITLE=%title%" -T "ALBUM=%albumtitle%" -T "DATE=%year%" -T "TRACKNUMBER=%tracknr%" %source%


TOC of the extracted CD

Track | Start | Length | Start sector | End sector
––––––––––––––––––––––––––––-
1 | 0:00.32 | 6:59.50 | 32 | 31506
2 | 7:00.07 | 10:25.73 | 31507 | 78454
3 | 17:26.05 | 6:51.27 | 78455 | 109306
4 | 24:17.32 | 8:59.03 | 109307 | 149734
5 | 33:16.35 | 10:02.47 | 149735 | 194931
6 | 43:19.07 | 10:11.18 | 194932 | 240774
7 | 53:30.25 | 6:42.02 | 240775 | 270926
8 | 60:12.27 | 4:46.13 | 270927 | 292389


Track 1

Filename D:\My Rip\01 - Les Grelots.wav

Pre-gap length 0:00:02.32

Peak level 97.2 %
Extraction speed 8.8 X
Track quality 100.0 %
Test CRC A8D258CA
Copy CRC A8D258CA
Accurately ripped (confidence 4) [00F30C09] (AR v2)
Copy OK

Track 2

Filename D:\My Rip\02 - Jean-Philippe Herbien.wav

Peak level 92.2 %
Extraction speed 10.1 X
Track quality 100.0 %
Test CRC 27061A5B
Copy CRC 27061A5B
Accurately ripped (confidence 4) [F5066F14] (AR v2)
Copy OK

Track 3

Filename D:\My Rip\03 - All The Things You Are.wav

Peak level 97.3 %
Extraction speed 11.0 X
Track quality 99.9 %
Test CRC AACFF98F
Copy CRC AACFF98F
Accurately ripped (confidence 4) [D3BD1226] (AR v2)
Copy OK

Track 4

Filename D:\My Rip\04 - I Wrote You A Song.wav

Peak level 90.7 %
Extraction speed 13.4 X
Track quality 100.0 %
Test CRC EB23A752
Copy CRC EB23A752
Accurately ripped (confidence 4) [C347FC5C] (AR v2)
Copy OK

Track 5

Filename D:\My Rip\05 - So What.wav

Peak level 99.2 %
Extraction speed 14.6 X
Track quality 100.0 %
Test CRC E34AD291
Copy CRC E34AD291
Accurately ripped (confidence 4) [00B9102B] (AR v2)
Copy OK

Track 6

Filename D:\My Rip\06 - These Foolish Things.wav

Peak level 90.3 %
Extraction speed 14.5 X
Track quality 99.9 %
Test CRC D68EFC66
Copy CRC D68EFC66
Accurately ripped (confidence 4) [4C17013B] (AR v2)
Copy OK

Track 7

Filename D:\My Rip\07 - Amesha.wav

Peak level 86.6 %
Extraction speed 13.8 X
Track quality 99.9 %
Test CRC B472F9D9
Copy CRC B472F9D9
Accurately ripped (confidence 4) [F0A8DCF7] (AR v2)
Copy OK

Track 8

Filename D:\My Rip\08 - Simply Bop.wav

Peak level 93.6 %
Extraction speed 11.8 X
Track quality 99.9 %
Test CRC 12096351
Copy CRC 12096351
Accurately ripped (confidence 4) [BD56CA37] (AR v2)
Copy OK


All tracks accurately ripped

No errors occurred

End of status report

==== Log checksum FEFE0F348031DEEE8E7CD95DAD260F4DDB20E090EF9686F30FB6945E94CB1D41 ====


––––––––––––––––––––––––––––––––––––––––
Analyzed: Michel Petrucciani-Eddy Louiss / Conference De Presse Vol 1
––––––––––––––––––––––––––––––––––––––––

DR Peak RMS Duration Track
––––––––––––––––––––––––––––––––––––––––
DR12 -0.24 dB -16.29 dB 7:00 01-Les Grelots
DR13 -0.70 dB -16.63 dB 10:26 02-Jean-Philippe Herbien
DR14 -0.24 dB -18.58 dB 6:51 03-All The Things You Are
DR14 -0.85 dB -18.88 dB 8:59 04-I Wrote You A Song
DR14 -0.07 dB -17.72 dB 10:03 05-So What
DR14 -0.88 dB -18.08 dB 10:11 06-These Foolish Things
DR13 -1.24 dB -17.28 dB 6:42 07-Amesha
DR13 -0.57 dB -15.91 dB 4:46 08-Simply Bop
––––––––––––––––––––––––––––––––––––––––

Number of tracks: 8
Official DR value: DR14

Samplerate: 44100 Hz
Channels: 2
Bits per sample: 16
Bitrate: 607 kbps
Codec: FLAC
================================================================================

Michel Petrucciani / Eddy Louiss - Conference De Presse Vol. 1 (1994)
Michel Petrucciani / Eddy Louiss - Conference De Presse Vol. 1 (1994)
Michel Petrucciani / Eddy Louiss - Conference De Presse Vol. 1 (1994)


Thanks to the original ripper