Subcategories

Michel Petrucciani / Eddy Louiss - Conference De Presse Vol. 2 (1995)

Posted By: tiburon
Michel Petrucciani / Eddy Louiss - Conference De Presse Vol. 2 (1995)

Michel Petrucciani / Eddy Louiss - Conference De Presse Vol. 2 (1995)
EAC 1.0b2 | FLAC tracks level 8 | Cue+Log+M3U+MD5 | Full Scans 300dpi | 281MB + 5% Recovery
MP3 CBR 320 Kbps | 147MB + 5% Recovery
Genre: Jazz, Hard-Bop

The two instruments (Piano and Hammon organ) - though unusual, go very well together. The artists play together and make room for each others performances as if they have known each other forever. Louiss' organ creates at smooth and warm athmosphere and Petrucciani plays with a sparkling enthuiasm seldom heard. His energy, drive and variations of the themes makes it impossible not to stamp your foot, nod your head and smile.
Track List
01. Autumn Leave 9:51
02. Hub Art 5:56
03. Caravan 8:00
04. Naissance 6:41
05. Rachid 7:35
06. Caraibes 9:03
07. Au P'tit Jour 6:58
08. Summertime 8:03

musicians
Michel Petrucciani - Steinway pianos
Eddy Louiss - Hammond organ

Recorded live at Petit Journal Montparnasse - Paris

Produced by Francis Dreyfus and Yves Chamberland


Exact Audio Copy V1.0 beta 2 from 29. April 2011

EAC extraction logfile from 26. June 2012, 16:19

Michel Petrucciani-Eddy Louiss / Conference De Presse Vol 2

Used drive : PLEXTOR CD-R PREMIUM2 Adapter: 1 ID: 1

Read mode : Secure
Utilize accurate stream : Yes
Defeat audio cache : Yes
Make use of C2 pointers : No

Read offset correction : 30
Overread into Lead-In and Lead-Out : No
Fill up missing offset samples with silence : Yes
Delete leading and trailing silent blocks : No
Null samples used in CRC calculations : Yes
Used interface : Installed external ASPI interface
Gap handling : Appended to previous track

Used output format : User Defined Encoder
Selected bitrate : 256 kBit/s
Quality : High
Add ID3 tag : No
Command line compressor : C:\Programmi\eac-1.00\Flac\flac.exe
Additional command line options : -8 -V -T "ARTIST=%artist%" -T "TITLE=%title%" -T "ALBUM=%albumtitle%" -T "DATE=%year%" -T "TRACKNUMBER=%tracknr%" %source%


TOC of the extracted CD

Track | Start | Length | Start sector | End sector
––––––––––––––––––––––––––––-
1 | 0:00.00 | 9:51.20 | 0 | 44344
2 | 9:51.20 | 5:56.25 | 44345 | 71069
3 | 15:47.45 | 8:00.18 | 71070 | 107087
4 | 23:47.63 | 6:41.67 | 107088 | 137229
5 | 30:29.55 | 7:35.58 | 137230 | 171412
6 | 38:05.38 | 9:03.07 | 171413 | 212144
7 | 47:08.45 | 6:58.40 | 212145 | 243534
8 | 54:07.10 | 8:03.55 | 243535 | 279814


Track 1

Filename D:\My Rip\01 - Autumn Leaves.wav

Pre-gap length 0:00:02.00

Peak level 100.0 %
Extraction speed 8.8 X
Track quality 99.9 %
Test CRC CC7B9B49
Copy CRC CC7B9B49
Accurately ripped (confidence 2) [29F56339] (AR v1)
Copy OK

Track 2

Filename D:\My Rip\02 - Hub Art.wav

Peak level 100.0 %
Extraction speed 10.8 X
Track quality 100.0 %
Test CRC 07D9B2A4
Copy CRC 07D9B2A4
Accurately ripped (confidence 2) [B30B173F] (AR v1)
Copy OK

Track 3

Filename D:\My Rip\03 - Caravan.wav

Peak level 100.0 %
Extraction speed 12.2 X
Track quality 100.0 %
Test CRC 32DF8AA7
Copy CRC 32DF8AA7
Cannot be verified as accurate (confidence 29) [AA2B11B7], AccurateRip returned [9AFF69E8] (AR v2)
Copy OK

Track 4

Filename D:\My Rip\04 - Naissance.wav

Peak level 100.0 %
Extraction speed 13.2 X
Track quality 100.0 %
Test CRC 2A39D6E9
Copy CRC 2A39D6E9
Accurately ripped (confidence 2) [DE495B46] (AR v1)
Copy OK

Track 5

Filename D:\My Rip\05 - Rachid.wav

Peak level 100.0 %
Extraction speed 14.2 X
Track quality 100.0 %
Test CRC B19747F8
Copy CRC B19747F8
Accurately ripped (confidence 2) [343C71D0] (AR v1)
Copy OK

Track 6

Filename D:\My Rip\06 - Caraibes.wav

Peak level 100.0 %
Extraction speed 15.3 X
Track quality 100.0 %
Test CRC 0BEF1C97
Copy CRC 0BEF1C97
Accurately ripped (confidence 2) [2C7FFA70] (AR v1)
Copy OK

Track 7

Filename D:\My Rip\07 - Au P'tit Jour.wav

Peak level 100.0 %
Extraction speed 16.0 X
Track quality 100.0 %
Test CRC 054C49E4
Copy CRC 054C49E4
Accurately ripped (confidence 2) [F829C964] (AR v1)
Copy OK

Track 8

Filename D:\My Rip\08 - Summertime.wav

Peak level 100.0 %
Extraction speed 13.9 X
Track quality 99.9 %
Test CRC C5CA7BDB
Copy CRC C5CA7BDB
Cannot be verified as accurate (confidence 28) [15FDB6DD], AccurateRip returned [53823386] (AR v2)
Copy OK


6 track(s) accurately ripped
2 track(s) could not be verified as accurate

Some tracks could not be verified as accurate

No errors occurred

End of status report

==== Log checksum 763F77595E4A1C6FC3F7E36B79911C8604EC3422B7E99F224CD37D4C0A832286 ====


––––––––––––––––––––––––––––––––––––––––
Analyzed: Michel Petrucciani-Eddy Louiss / Conference De Presse Vol 2
––––––––––––––––––––––––––––––––––––––––

DR Peak RMS Duration Track
––––––––––––––––––––––––––––––––––––––––
DR11 0.00 dB -13.12 dB 9:51 01-Autumn Leaves
DR10 0.00 dB -11.91 dB 5:56 02-Hub Art
DR10 0.00 dB -13.05 dB 8:00 03-Caravan
DR12 0.00 dB -17.15 dB 6:42 04-Naissance
DR10 0.00 dB -13.73 dB 7:36 05-Rachid
DR11 0.00 dB -13.49 dB 9:03 06-Caraibes
DR12 0.00 dB -14.66 dB 6:59 07-Au P'tit Jour
DR11 0.00 dB -14.31 dB 8:04 08-Summertime
––––––––––––––––––––––––––––––––––––––––

Number of tracks: 8
Official DR value: DR11

Samplerate: 44100 Hz
Channels: 2
Bits per sample: 16
Bitrate: 619 kbps
Codec: FLAC
================================================================================

Michel Petrucciani / Eddy Louiss - Conference De Presse Vol. 2 (1995)
Michel Petrucciani / Eddy Louiss - Conference De Presse Vol. 2 (1995)
Michel Petrucciani / Eddy Louiss - Conference De Presse Vol. 2 (1995)


Thanks to the original ripper