Tags
Language
Tags
June 2024
Su Mo Tu We Th Fr Sa
26 27 28 29 30 31 1
2 3 4 5 6 7 8
9 10 11 12 13 14 15
16 17 18 19 20 21 22
23 24 25 26 27 28 29
30 1 2 3 4 5 6

Michi Gaigg, L'Arpa Festante - Georg Matthias Monn: Six Symphonies (1996)

Posted By: ArlegZ
Michi Gaigg, L'Arpa Festante - Georg Matthias Monn: Six Symphonies (1996)

Michi Gaigg, L'Arpa Festante - Georg Matthias Monn: Six Symphonies (1996)
EAC | FLAC | Image (Cue & Log) ~ 239 Mb | Total time: 49:08 | Scans included
Classical | Label: CPO | # 999 273-2 | Recorded: 1994

Nach unserer erfolgreichen Erstveröffentlichung der Instrumentalkonzerte Georg Matthias Monns lassen wir nun noch eine CD des Komponisten mit sechs seiner Sinfonien folgen, nicht nur um dem Komponisten den ihm gebührenden Rang zu verschaffen, sondern auch, um Ihnen die Bekanntschaft mit diesen lebendigen Werken zu ermöglichen. Monn schrieb mehr als 20 Sinfonien, die leider nur noch zum Teil erhalten sind.
CPO bietet eine Auswahl aus dem Gesamtwerk; die ein deutliches Bild von der Entwicklung sowie von der Bedeutung des Sinfonikers Monn vermittelt. Mit erkennbaren Sonatenhauptsatzformen wie Exposition oder Durchführungen tritt Monn schon als »Wegbereiter der Wiener Klassik« auf. Zwar einerseits noch in der Kontrapunktik eines Johann Joseph Fux verwurzelt, zeigt sich in seinen Sinfonien auch eine originelle, sprungvolle Harmonik, die seiner Musik ein hohes Maß an Ausdruckskraft verleiht. Und, nebenbei bemerkt, eine Sinfonie Monns aus dem Jahre 1740 ist das erste Beispiel in der Gattungsgeschichte, das ein Menuett aufweist!
Das Münchener Ensemble L'Arpa Fest-ante musiziert unter der Leitung von Michi Gaigg die zeitlich leider nicht genau datierbaren Sinfonien in G-dur, Es-dur, D-dur, A-dur und zwei in B-dur.

Performer:
L'Arpa Festante
Michi Gaigg, conductor

Track List:
Matthias Georg Monn (1717-1750)
Sinfonia in G major
01. 1. Allegro
02. 2. Andante
03. 3. Presto
Sinfonia in B flat major
04. 1. Allegro
05. 2. Andante molto
06. 3. Presto
Sinfonia in E flat major
07. 1. Allegro
08. 2. Andante
09. 3. Presto
Sinfonia a quattro in B flat major
10. 1. Adagio
11. 2. Allegro
12. 3. Largo
13. 4. Allegro assai
Sinfonia in D major
14. 1. Allegro
15. 2. Larghetto
16. 3. Allegro
Sinfonia in A major
17. 1. Allegro
18. 2. Andante
19. 3. Allegro


Exact Audio Copy V1.6 from 23. October 2020

EAC extraction logfile from 18. August 2021, 19:59

L'Arpa Estante, Michi Gaigg / Monn Sinfonien

Used drive : ATAPI iHAS122 F Adapter: 1 ID: 0

Read mode : Secure
Utilize accurate stream : Yes
Defeat audio cache : Yes
Make use of C2 pointers : No

Read offset correction : 6
Overread into Lead-In and Lead-Out : No
Fill up missing offset samples with silence : Yes
Delete leading and trailing silent blocks : No
Null samples used in CRC calculations : Yes
Used interface : Native Win32 interface for Win NT & 2000

Used output format : User Defined Encoder
Selected bitrate : 768 kBit/s
Quality : High
Add ID3 tag : No
Command line compressor : C:\Program Files (x86)\Exact Audio Copy\FLAC\FLAC.EXE
Additional command line options : -6 -V -T "ARTIST=%artist%" -T "TITLE=%title%" -T "ALBUM=%albumtitle%" -T "DATE=%year%" -T "TRACKNUMBER=%tracknr%" -T "GENRE=%genre%" -T "COMMENT=%comment%" -T "BAND=%albuminterpret%" -T "ALBUMARTIST=%albuminterpret%" -T "COMPOSER=%composer%" %haslyrics%–tag-from-file=LYRICS="%lyricsfile%"%haslyrics% -T "DISCNUMBER=%cdnumber%" -T "TOTALDISCS=%totalcds%" -T "TOTALTRACKS=%numtracks%" %hascover%–picture="%coverfile%"%hascover% %source% -o %dest%


TOC of the extracted CD

Track | Start | Length | Start sector | End sector
––––––––––––––––––––––––––––-
1 | 0:00.32 | 4:55.40 | 32 | 22196
2 | 4:55.72 | 3:42.05 | 22197 | 38851
3 | 8:38.02 | 1:37.38 | 38852 | 46164
4 | 10:15.40 | 2:17.00 | 46165 | 56439
5 | 12:32.40 | 3:22.02 | 56440 | 71591
6 | 15:54.42 | 4:09.43 | 71592 | 90309
7 | 20:04.10 | 2:44.02 | 90310 | 102611
8 | 22:48.12 | 2:46.13 | 102612 | 115074
9 | 25:34.25 | 1:33.07 | 115075 | 122056
10 | 27:07.32 | 2:45.58 | 122057 | 134489
11 | 29:53.15 | 2:35.02 | 134490 | 146116
12 | 32:28.17 | 1:38.03 | 146117 | 153469
13 | 34:06.20 | 1:39.00 | 153470 | 160894
14 | 35:45.20 | 3:35.47 | 160895 | 177066
15 | 39:20.67 | 1:33.73 | 177067 | 184114
16 | 40:54.65 | 1:53.05 | 184115 | 192594
17 | 42:47.70 | 3:55.12 | 192595 | 210231
18 | 46:43.07 | 1:35.35 | 210232 | 217391
19 | 48:18.42 | 0:50.18 | 217392 | 221159


Range status and errors

Selected range

Filename K:\Tubarec rips\Monn - L'Arpa Estante, Michi Gaigg - Six Symphonies\L'Arpa Estante, Michi Gaigg - Monn Sinfonien.wav

Peak level 99.9 %
Extraction speed 7.6 X
Range quality 99.9 %
Test CRC B5C16ECB
Copy CRC B5C16ECB
Copy OK

No errors occurred


AccurateRip summary

Track 1 accurately ripped (confidence 6) [4E94CCAA] (AR v2)
Track 2 accurately ripped (confidence 6) [EB73B157] (AR v2)
Track 3 accurately ripped (confidence 6) [4165C0D2] (AR v2)
Track 4 accurately ripped (confidence 6) [3CC46ED9] (AR v2)
Track 5 accurately ripped (confidence 6) [DCE79CB2] (AR v2)
Track 6 accurately ripped (confidence 6) [608C6D04] (AR v2)
Track 7 accurately ripped (confidence 6) [8E08B744] (AR v2)
Track 8 accurately ripped (confidence 5) [E0A62710] (AR v2)
Track 9 accurately ripped (confidence 5) [437F0B25] (AR v2)
Track 10 accurately ripped (confidence 6) [35BED21C] (AR v2)
Track 11 accurately ripped (confidence 6) [FE7739FA] (AR v2)
Track 12 accurately ripped (confidence 6) [268F0C8D] (AR v2)
Track 13 accurately ripped (confidence 6) [E22F01B5] (AR v2)
Track 14 accurately ripped (confidence 6) [80133406] (AR v2)
Track 15 accurately ripped (confidence 6) [BC2BD06E] (AR v2)
Track 16 accurately ripped (confidence 6) [344C74BF] (AR v2)
Track 17 accurately ripped (confidence 6) [8302BD6F] (AR v2)
Track 18 accurately ripped (confidence 6) [EF6533B1] (AR v2)
Track 19 accurately ripped (confidence 6) [09B0F4F4] (AR v2)

All tracks accurately ripped

End of status report

–– CUETools DB Plugin V2.1.6

[CTDB TOCID: faxhVNrOW062yvo1wbM9C5dzhfs-] found
Submit result: faxhVNrOW062yvo1wbM9C5dzhfs- has been confirmed
Track | CTDB Status
1 | (24/24) Accurately ripped
2 | (24/24) Accurately ripped
3 | (24/24) Accurately ripped
4 | (24/24) Accurately ripped
5 | (24/24) Accurately ripped
6 | (24/24) Accurately ripped
7 | (24/24) Accurately ripped
8 | (24/24) Accurately ripped
9 | (24/24) Accurately ripped
10 | (24/24) Accurately ripped
11 | (24/24) Accurately ripped
12 | (24/24) Accurately ripped
13 | (24/24) Accurately ripped
14 | (24/24) Accurately ripped
15 | (24/24) Accurately ripped
16 | (24/24) Accurately ripped
17 | (24/24) Accurately ripped
18 | (24/24) Accurately ripped
19 | (24/24) Accurately ripped


==== Log checksum B664536F2B262D737C954BBB47A0136AD7B03A1FF628709488B3ECFF68EA1E48 ====

Michi Gaigg, L'Arpa Festante - Georg Matthias Monn: Six Symphonies (1996)

Thanks to the original releaser