Tags
Language
Tags
June 2024
Su Mo Tu We Th Fr Sa
26 27 28 29 30 31 1
2 3 4 5 6 7 8
9 10 11 12 13 14 15
16 17 18 19 20 21 22
23 24 25 26 27 28 29
30 1 2 3 4 5 6

Middle Of The Road - The Collection (1998)

Posted By: popsakov
Middle Of The Road - The Collection (1998)

Middle Of The Road - The Collection (1998)
EAC Rip | FLAC (Img) + Cue + Log ~ 345 Mb | MP3 CBR320 ~ 127 Mb
Full Scans | 00:51:06 | RAR 5% Recovery
Pop | RCA / BMG #74321 56562 2

One of those uniquely '70s groups, Middle of the Road were a Scottish pop vocal group whose singles "Chirpy Chirpy Cheep Cheep," "Tweedle Dee Tweedle Dum," and "Soley Soley" were huge European hits, selling in the tens of millions. Formed by Sally Carr (vocals), Ian McCredie (guitar), Eric McCredie (bass), and drummer Ken Andrew in 1970 (the group had been playing together since 1967, but under the moniker of "Part Three") Middle of the Road had trouble finding success until they uprooted from the United Kingdom and settled in Italy. There they met famed producer Giacomo Tosti, who revamped the group, and molded them in the sound and image that would take them to pop heights. 1971 would see the release of their first single, the mega hit "Chirp Chirp Cheep Cheep," as well as an album of the same name. The song would reach the upper echelons of charts all over the continent and propel the once unknown Scots into the pop consciousness almost overnight. More singles followed, as well as a handful of albums, but by 1976 the musical landscape had changed and Middle of the Road eventually called it a day. The band would make a return on the retro circuit performing well into the 21st century, albeit under the aegis of Middle of the Road featuring Sally Carr.

~ Chris True, All Music

***************

Middle Of The Road - The Collection (1998)

Middle Of The Road - The Collection (1998)

Track List:

01. Soley Soley [3:09]
02. Queen Bee [2:55]
03. Sacramento [2:58]
04. Yellow River [2:53]
05. Samson And Delilah [3:04]
06. Bottoms Up [3:15]
07. I Can't Tell The Bottom From The Top [3:32]
08. Chirpy Chirpy Cheep Cheep [2:59]
09. On This Land [3:49]
10. Tweedle Dee, Tweedle Dum [3:14]
11. Kailakee Kailakoo [2:59]
12. Honey No [3:20]
13. Love Sweet Love [3:35]
14. Yellow Boomerang [2:40]
15. To Remind Me [3:33]
16. The Talk Of All The USA [3:12]

Exact Audio Copy V1.0 beta 3 from 29. August 2011

EAC extraction logfile from 5. April 2017, 9:24

Middle Of The Road / The Collection

Used drive : TSSTcorpCDDVDW SH-216DB Adapter: 0 ID: 0

Read mode : Secure
Utilize accurate stream : Yes
Defeat audio cache : Yes
Make use of C2 pointers : No

Read offset correction : 6
Overread into Lead-In and Lead-Out : No
Fill up missing offset samples with silence : Yes
Delete leading and trailing silent blocks : No
Null samples used in CRC calculations : Yes
Used interface : Native Win32 interface for Win NT & 2000

Used output format : User Defined Encoder
Selected bitrate : 1024 kBit/s
Quality : High
Add ID3 tag : No
Command line compressor : C:\Program Files (x86)\Exact Audio Copy\Flac\flac.exe
Additional command line options : -V -8 -T "Date=%year%" -T "Genre=%genre%" %source%


TOC of the extracted CD

Track | Start | Length | Start sector | End sector
––––––––––––––––––––––––––––-
1 | 0:00.32 | 3:08.45 | 32 | 14176
2 | 3:09.02 | 2:54.63 | 14177 | 27289
3 | 6:03.65 | 2:57.70 | 27290 | 40634
4 | 9:01.60 | 2:52.40 | 40635 | 53574
5 | 11:54.25 | 3:03.70 | 53575 | 67369
6 | 14:58.20 | 3:15.15 | 67370 | 82009
7 | 18:13.35 | 3:31.42 | 82010 | 97876
8 | 21:45.02 | 2:59.05 | 97877 | 111306
9 | 24:44.07 | 3:49.00 | 111307 | 128481
10 | 28:33.07 | 3:14.05 | 128482 | 143036
11 | 31:47.12 | 2:58.50 | 143037 | 156436
12 | 34:45.62 | 3:20.33 | 156437 | 171469
13 | 38:06.20 | 3:34.62 | 171470 | 187581
14 | 41:41.07 | 2:40.25 | 187582 | 199606
15 | 44:21.32 | 3:33.13 | 199607 | 215594
16 | 47:54.45 | 3:11.62 | 215595 | 229981


Range status and errors

Selected range

Filename L:\Private\My Audio Ripps\ CD - RIPS\Middle Of The Road ‎– The Collection\Middle Of The Road - The Collection.wav

Peak level 99.0 %
Extraction speed 2.4 X
Range quality 100.0 %
Test CRC 489C9CC3
Copy CRC 489C9CC3
Copy OK

No errors occurred


AccurateRip summary

Track 1 accurately ripped (confidence 7) [DD399DF8] (AR v2)
Track 2 accurately ripped (confidence 7) [6A8CF1E7] (AR v2)
Track 3 accurately ripped (confidence 7) [B952CA28] (AR v2)
Track 4 accurately ripped (confidence 7) [513F489C] (AR v2)
Track 5 accurately ripped (confidence 7) [6206FA06] (AR v2)
Track 6 accurately ripped (confidence 7) [A2B0AC94] (AR v2)
Track 7 accurately ripped (confidence 7) [4C9DB3AA] (AR v2)
Track 8 accurately ripped (confidence 7) [E46FDA26] (AR v2)
Track 9 accurately ripped (confidence 7) [22CE20BD] (AR v2)
Track 10 accurately ripped (confidence 7) [31443D6A] (AR v2)
Track 11 accurately ripped (confidence 7) [C4081673] (AR v2)
Track 12 accurately ripped (confidence 7) [B578D4D9] (AR v2)
Track 13 accurately ripped (confidence 7) [FF16FD47] (AR v2)
Track 14 accurately ripped (confidence 7) [5A6D7A9D] (AR v2)
Track 15 accurately ripped (confidence 7) [9BCCF3A4] (AR v2)
Track 16 accurately ripped (confidence 7) [E8AA9987] (AR v2)

All tracks accurately ripped

End of status report

==== Log checksum E6883A0D4BE9C872AFF0566AEA359780BE993612280F09E7A712E61B62B97DB8 ====

[CUETools log; Date: 09.04.2017 13:50:08; Version: 2.1.5]
Pregap length 00:00:32.
[CTDB TOCID: 9aL8VAE2dfQJjM9eObO7s5A_Iy0-] found.
Track | CTDB Status
1 | (9/9) Accurately ripped
2 | (9/9) Accurately ripped
3 | (9/9) Accurately ripped
4 | (9/9) Accurately ripped
5 | (9/9) Accurately ripped
6 | (9/9) Accurately ripped
7 | (9/9) Accurately ripped
8 | (9/9) Accurately ripped
9 | (9/9) Accurately ripped
10 | (9/9) Accurately ripped
11 | (9/9) Accurately ripped
12 | (9/9) Accurately ripped
13 | (9/9) Accurately ripped
14 | (9/9) Accurately ripped
15 | (9/9) Accurately ripped
16 | (9/9) Accurately ripped
[AccurateRip ID: 001d6541-0162bbac-e30bfa10] found.
Track [ CRC | V2 ] Status
01 [4e0a2ed9|dd399df8] (09+07/16) Accurately ripped
02 [78bedbee|6a8cf1e7] (09+07/16) Accurately ripped
03 [a4fd33e4|b952ca28] (09+07/16) Accurately ripped
04 [68636567|513f489c] (09+07/16) Accurately ripped
05 [93f35f70|6206fa06] (09+07/16) Accurately ripped
06 [5b28bb9e|a2b0ac94] (09+07/16) Accurately ripped
07 [c5dae979|4c9db3aa] (09+07/16) Accurately ripped
08 [792334e2|e46fda26] (09+07/16) Accurately ripped
09 [26982991|22ce20bd] (09+07/16) Accurately ripped
10 [e71ae8c3|31443d6a] (09+07/16) Accurately ripped
11 [828ff32e|c4081673] (09+07/16) Accurately ripped
12 [3b1f601d|b578d4d9] (09+07/16) Accurately ripped
13 [07e8e497|ff16fd47] (08+07/15) Accurately ripped
14 [6ac28e92|5a6d7a9d] (09+07/16) Accurately ripped
15 [fbfd63eb|9bccf3a4] (09+07/16) Accurately ripped
16 [61428b98|e8aa9987] (09+07/16) Accurately ripped

Track Peak [ CRC32 ] [W/O NULL] [ LOG ]
– 99,0 [489C9CC3] [778B440A] CRC32
01 99,0 [D8FAB5E9] [BC970B0F]
02 99,0 [D39FEB41] [124B37AE]
03 99,0 [AAFD262E] [FE7DC36C]
04 99,0 [9CD545F5] [35ECB97E]
05 99,0 [009B37FC] [3053ACBA]
06 99,0 [05823625] [8A3C2BB8]
07 99,0 [66612A2C] [DF119651]
08 99,0 [D2EF8EFD] [5B5A5942]
09 98,9 [9442947F] [46098805]
10 99,0 [14305AA6] [52AEE31F]
11 99,0 [F994737C] [FB31977D]
12 99,0 [64B7196A] [753A862B]
13 98,9 [2BE6AEBB] [CF6994C1]
14 99,0 [C5E9AAD4] [410ECA37]
15 98,9 [96264F02] [A80F439E]
16 99,0 [D061DB88] [976A16BC]

Middle Of The Road - The Collection (1998)


All thanks go to alexpika

>>> My Blog <<<

DOWNLOAD: