Subcategories

Mike McGear - Woman (1972) Japanese SHM-CD, Remastered 2009 [Re-Up]

Posted By: Designol
Mike McGear - Woman (1972) Japanese SHM-CD, Remastered 2009 [Re-Up]

Mike McGear - Woman (1972) Japanese SHM-CD, Remastered 2009
EAC | FLAC | Image (Cue&Log) ~ 238 Mb | Mp3 (CBR320) ~ 85 Mb | Scans ~ 71 Mb
Classic Rock, Pop/Rock | Label: Universal/Island | # UICY-94109 | Time: 00:37:25

Woman is the first solo album by British musician Mike McGear (spelled Michael on the cover), brother of former-Beatle Paul McCartney, who also co-wrote a song, but is credited as a "friend". Roger McGough produced and co-wrote some songs with McGear. The cover is a black-and-white photo of McGear/McCartney's mother.

This LP has been sitting on my LP shelf for the better part of 35 years, virtually untouched. As I was a big Beatles fan, of course I had to pick this up as an import, I'm thinking around 1975. I did give it a spin then and it sure wasn't anything like his famous brother, so I put it back on the shelf and really forgot about it. These days I'm digging through all my old LPs, reassessing them, and transferring to digital those that "make the grade." I looked at this one, and thought "why not give it a spin?" I was actually pleasantly surprised. It has a certain quality that I found very appealing. The arrangements and production is sparse and effective, the playing is topnotch, and the singing fits the songs in an odd sort of way. These songs work in this context. Considering this was a self-produced first effort, it holds up surprisingly well. The musicianship, featuring Brian Auger and Zoot Money, is really fine. Once you adjust to the fact that McGear's voice is more a tool than a feature, it's really a fine listen. A couple of songs go on a bit, and are not that strong, but as a whole this is an impressive debut.

Review by Gordon Pfannenstiel, Amazon.com

Mike McGear - Woman (1972) Japanese SHM-CD, Remastered 2009 [Re-Up]



Tracklist:

01. Woman (03:04)
02. Witness (04:06)
03. Jolly Good Show (03:08)
04. Roamin A Road (02:22)
05. Sister (03:13)
06. Wishin (03:24)
07. Young Young Man (Five Years Ago) (00:59)
08. Young Man (Five Years Later) (02:50)
09. Edward Heath (00:57)
10. Bored As Butterscotch (02:51)
11. Uptown Downtown (02:29)
12. Tiger (07:26)


Exact Audio Copy V1.1 from 23. June 2015

Отчёт EAC об извлечении, выполненном 22. сентября 2016, 12:58

Mike McGear / Woman

Дисковод: PIONEER DVD-RW DVR-221L Adapter: 1 ID: 0

Режим чтения : Достоверность
Использование точного потока : Да
Отключение кэша аудио : Да
Использование указателей C2 : Нет

Коррекция смещения при чтении : 6
Способность читать области Lead-in и Lead-out : Нет
Заполнение пропущенных сэмплов тишиной : Да
Удаление блоков с тишиной в начале и конце : Нет
При вычислениях CRC использовались нулевые сэмплы : Да
Интерфейс : Встроенный Win32-интерфейс для Win NT/2000

Выходной формат : Пользовательский кодировщик
Выбранный битрейт : 128 kBit/s
Качество : Высокий
Добавление ID3-тега : Нет
Утилита сжатия : C:\Program Files\Exact Audio Copy\Flac\flac.exe
Дополнительные параметры : -V -8 -T "Date=%year%" -T "Genre=%genre%" %source%


TOC извлечённого CD

Трек | Старт | Длительность | Начальный сектор | Конечный сектор
––––––––––––––––––––––––––––––––––-
1 | 0:00.00 | 3:08.55 | 0 | 14154
2 | 3:08.55 | 4:10.05 | 14155 | 32909
3 | 7:18.60 | 3:12.15 | 32910 | 47324
4 | 10:31.00 | 2:25.66 | 47325 | 58265
5 | 12:56.66 | 3:15.24 | 58266 | 72914
6 | 16:12.15 | 3:27.19 | 72915 | 88458
7 | 19:39.34 | 0:59.51 | 88459 | 92934
8 | 20:39.10 | 2:54.05 | 92935 | 105989
9 | 23:33.15 | 0:58.68 | 105990 | 110407
10 | 24:32.08 | 2:53.41 | 110408 | 123423
11 | 27:25.49 | 2:32.74 | 123424 | 134897
12 | 29:58.48 | 7:26.52 | 134898 | 168399


Характеристики диапазона извлечения и сообщения об ошибках

Выбранный диапазон

Имя файла D:\Мусор\Mike McGear - Woman - 1972.wav

Пиковый уровень 99.8 %
Скорость извлечения 3.8 X
Качество диапазона 99.9 %
CRC копии 1FD988C7
Копирование… OK

Ошибок не произошло


AccurateRip: сводка

Трек 1 : извлечено точно (доверие 2) [6DD16C48] (AR v2)
Трек 2 : извлечено точно (доверие 2) [8A6B6416] (AR v2)
Трек 3 : извлечено точно (доверие 2) [54725A36] (AR v2)
Трек 4 : извлечено точно (доверие 2) [EDB3D68C] (AR v2)
Трек 5 : извлечено точно (доверие 2) [0C0B2C11] (AR v2)
Трек 6 : извлечено точно (доверие 2) [B8A9749C] (AR v2)
Трек 7 : извлечено точно (доверие 2) [DDDD0A9C] (AR v2)
Трек 8 : извлечено точно (доверие 2) [E45DD5FC] (AR v2)
Трек 9 : извлечено точно (доверие 2) [801AF77A] (AR v2)
Трек 10 : извлечено точно (доверие 2) [83E8189D] (AR v2)
Трек 11 : извлечено точно (доверие 2) [C8685352] (AR v2)
Трек 12 : извлечено точно (доверие 2) [0FB3C16C] (AR v2)

Все треки извлечены точно

Конец отчёта

==== Контрольная сумма отчёта 15C009C2DBF3FA399A9E6BDAE4586A2473DAF82A9BF2B12DC74B9D6E0797F8C5 ====

foobar2000 1.2 / Dynamic Range Meter 1.1.1
log date: 2016-09-24 15:56:29

––––––––––––––––––––––––––––––––––––––––
Analyzed: Mike McGear / Woman
––––––––––––––––––––––––––––––––––––––––

DR Peak RMS Duration Track
––––––––––––––––––––––––––––––––––––––––
DR9 -0.01 dB -13.31 dB 3:09 01-Woman
DR7 -0.01 dB -10.43 dB 4:10 02-Witness
DR9 -0.01 dB -10.25 dB 3:12 03-Jolly Good Show
DR7 -0.01 dB -9.58 dB 2:26 04-Roamin A Road
DR8 -0.01 dB -12.13 dB 3:15 05-Sister
DR7 -0.01 dB -8.71 dB 3:27 06-Wishin
DR12 -3.51 dB -24.23 dB 1:00 07-Young Young Man (Five Years Ago)
DR8 -0.01 dB -10.06 dB 2:54 08-Young Young Man (Five Years Later)
DR8 -0.01 dB -10.05 dB 0:59 09-Edward Heath
DR8 -0.01 dB -10.68 dB 2:54 10-Bored As Butterscotch
DR7 -0.01 dB -8.31 dB 2:33 11-Uptowndowntown
DR7 -0.01 dB -9.26 dB 7:27 12-Tiger
––––––––––––––––––––––––––––––––––––––––

Number of tracks: 12
Official DR value: DR8

Samplerate: 44100 Hz
Channels: 2
Bits per sample: 16
Bitrate: 891 kbps
Codec: FLAC
================================================================================

Mike McGear - Woman (1972) Japanese SHM-CD, Remastered 2009 [Re-Up]

All thanks to original releaser - moiseykin

More interesting music in My Blog