Tags
Language
Tags

Miki Howard - The Very Best Of Miki Howard (2001)

Posted By: Designol
Miki Howard - The Very Best Of Miki Howard (2001)

Miki Howard - The Very Best Of Miki Howard (2001)
EAC | FLAC | Image (Cue&Log) ~ 513 Mb | Mp3 (CBR320) ~ 183 Mb | Scans ~ 38 Mb
Soul, Urban, R&B, Vocal Jazz | Label: Rhino, Atlantic | # R2 74296 | 01:18:59

Rhino's 2001 retrospective The Very Best of Miki Howard is a generous, near-definitive overview of Howard's biggest R&B hits from the '80s. She didn't have many crossover hits, but she did have numerous entries on the R&B charts, all of which are here, including a duet with Gerald Levert, "That's What Love Is." Although this is a little lengthy for listeners with abbreviated attention spans, it does summarize Howard's peak very well, and is as comprehensive a Howard retrospective as could be hoped for.

Review by Stephen Thomas Erlewine, Allmusic.com

Miki Howard - The Very Best Of Miki Howard (2001)

Miki Howard at Allmusic
Miki Howard at Wiki


Tracklist:

01. Come Share My Love (4:47)
02. Imagination (4:23)
03. Love Will Find A Way (4:31)
04. Baby, Be Mine (5:31)
05. That's What Love Is (with Gerald Levert) (4:34)
06. Crazy (4:23)
07. You've Changed (3:37)
08. Come Home To Me (5:49)
09. Ain't Nuthin' In The World (4:57)
10. Love Under New Management (6:50)
11. Until You Come Back To Me (That's What I'm Gonna Do) (4:08)
12. If You Still Love Her (5:31)
13. Ain't Nobody Like You (4:57)
14. Good Morning Heartache (4:23)
15. Release Me (5:13)
16. Don't Explain (5:26)


Exact Audio Copy V1.0 beta 2 from 29. April 2011

Отчёт EAC об извлечении, выполненном 20. сентября 2011, 19:52

Miki Howard / The Very Best Of

Дисковод: Optiarc DVD RW AD-7263S Adapter: 1 ID: 0

Режим чтения : Достоверность
Использование точного потока : Да
Отключение кэша аудио : Да
Использование указателей C2 : Нет

Коррекция смещения при чтении : 48
Способность читать области Lead-in и Lead-out : Нет
Заполнение пропущенных сэмплов тишиной : Да
Удаление блоков с тишиной в начале и конце : Нет
При вычислениях CRC использовались нулевые сэмплы : Да
Интерфейс : Встроенный Win32-интерфейс для Win NT/2000

Выходной формат : Пользовательский кодировщик
Выбранный битрейт : 128 kBit/s
Качество : Высокий
Добавление ID3-тега : Нет
Утилита сжатия : C:\Program Files\Exact Audio Copy\FLAC\FLAC.EXE
Дополнительные параметры : -V -8 -T "Date=%year%" -T "Genre=%genre%" %source%


TOC извлечённого CD

Трек | Старт | Длительность | Начальный сектор | Конечный сектор
––––––––––––––––––––––––––––––––––-
1 | 0:00.33 | 4:47.32 | 33 | 21589
2 | 4:47.65 | 4:22.63 | 21590 | 41302
3 | 9:10.53 | 4:30.55 | 41303 | 61607
4 | 13:41.33 | 5:31.12 | 61608 | 86444
5 | 19:12.45 | 4:34.35 | 86445 | 107029
6 | 23:47.05 | 4:22.63 | 107030 | 126742
7 | 28:09.68 | 3:36.60 | 126743 | 143002
8 | 31:46.53 | 5:48.42 | 143003 | 169144
9 | 37:35.20 | 4:57.25 | 169145 | 191444
10 | 42:32.45 | 6:49.63 | 191445 | 222182
11 | 49:22.33 | 4:07.55 | 222183 | 240762
12 | 53:30.13 | 5:30.67 | 240763 | 265579
13 | 59:01.05 | 4:56.60 | 265580 | 287839
14 | 63:57.65 | 4:22.60 | 287840 | 307549
15 | 68:20.50 | 5:12.65 | 307550 | 331014
16 | 73:33.40 | 5:25.55 | 331015 | 355444


Характеристики диапазона извлечения и сообщения об ошибках

Выбранный диапазон

Имя файла C:\Miki Howard - The Very Best Of.wav

Пиковый уровень 97.2 %
Скорость извлечения 4.6 X
Качество диапазона 100.0 %
CRC теста 356BDD82
CRC копии 356BDD82
Копирование… OK

Ошибок не произошло

Конец отчёта

==== Контрольная сумма отчёта A3FA507A422EAD1CB046D7546A85AA14D74DF113A3086AAF99EA15ABB3B815D7 ====

[CUETools log; Date: 21.05.2017 18:36:19; Version: 2.1.4]
Pregap length 00:00:33.
[CTDB TOCID: BLEuldkuUQkwKBV.ox7Y2lBvW2Q-] found.
Track | CTDB Status
1 | (3/3) Accurately ripped
2 | (3/3) Accurately ripped
3 | (3/3) Accurately ripped
4 | (3/3) Accurately ripped
5 | (3/3) Accurately ripped
6 | (3/3) Accurately ripped
7 | (3/3) Accurately ripped
8 | (3/3) Accurately ripped
9 | (3/3) Accurately ripped
10 | (3/3) Accurately ripped
11 | (3/3) Accurately ripped
12 | (3/3) Accurately ripped
13 | (3/3) Accurately ripped
14 | (3/3) Accurately ripped
15 | (3/3) Accurately ripped
16 | (3/3) Accurately ripped
[AccurateRip ID: 002d2581-022118c7-e4128310] found.
Track [ CRC | V2 ] Status
01 [d939641d|d925d1cb] (0+4/4) Accurately ripped
02 [73bbf476|29900a38] (0+4/4) Accurately ripped
03 [1f2ae419|9fc89716] (0+4/4) Accurately ripped
04 [21a6b53f|d2183edd] (0+4/4) Accurately ripped
05 [e7bf87e8|29734443] (0+4/4) Accurately ripped
06 [4b51d2aa|810ac843] (0+4/4) Accurately ripped
07 [251a3a16|4652e7f6] (0+4/4) Accurately ripped
08 [ea993456|66adea95] (0+4/4) Accurately ripped
09 [37a8f1ad|4c439c6b] (0+4/4) Accurately ripped
10 [44f187fb|d77e255b] (0+4/4) Accurately ripped
11 [dd1f2ca4|b43d8efe] (0+4/4) Accurately ripped
12 [0580f807|eae8542f] (0+4/4) Accurately ripped
13 [95fbd09c|dfaefff7] (0+4/4) Accurately ripped
14 [3a06f0b4|cf95e687] (0+4/4) Accurately ripped
15 [784519b4|61664311] (0+4/4) Accurately ripped
16 [38488eeb|d95a04a1] (0+4/4) Accurately ripped

Track Peak [ CRC32 ] [W/O NULL] [ LOG ]
– 97,2 [356BDD82] [BFE09D64] CRC32
01 97,2 [FF713C3A] [299C008F]
02 97,2 [E69434C5] [99A145B6]
03 97,2 [01AF3F77] [5D0BD2BD]
04 97,2 [B74F5EF5] [F33B101C]
05 97,2 [2B253FEF] [21E80681]
06 97,2 [142124D1] [3C89DA10]
07 86,5 [9D8AD62F] [7A376742]
08 97,2 [CB77EB91] [E1F8735E]
09 89,3 [96ACEAE4] [BAE1C0E2]
10 97,2 [557299C1] [695CE918]
11 97,2 [59D7BFAE] [CE778823]
12 97,2 [3F45D87D] [00AAE86D]
13 97,2 [50C5BAE0] [2851ECBD]
14 94,6 [E28C8D81] [A983A3E0]
15 95,0 [FD5EDF8E] [B47C1EF3]
16 97,2 [587547BF] [229A000A]

foobar2000 1.2 / Dynamic Range Meter 1.1.1
log date: 2017-05-21 18:39:40

––––––––––––––––––––––––––––––––––––––––
Analyzed: Miki Howard / The Very Best Of
––––––––––––––––––––––––––––––––––––––––

DR Peak RMS Duration Track
––––––––––––––––––––––––––––––––––––––––
DR10 -0.24 dB -12.96 dB 4:47 01-Come Share My Love
DR12 -0.24 dB -15.18 dB 4:23 02-Imagination
DR11 -0.24 dB -13.93 dB 4:31 03-Love Will Find A Way
DR10 -0.24 dB -13.46 dB 5:31 04-Baby, Be Mine
DR11 -0.24 dB -13.37 dB 4:34 05-05. That's What Love Is (with Gerald Levert)
DR12 -0.24 dB -14.31 dB 4:23 06-Crazy
DR10 -1.26 dB -14.32 dB 3:37 07-You've Changed
DR11 -0.24 dB -13.40 dB 5:49 08-Come Home To Me
DR9 -0.98 dB -11.35 dB 4:57 09-Ain't Nuthin' In The World
DR11 -0.24 dB -13.97 dB 6:50 10-Love Under New Management
DR10 -0.24 dB -12.08 dB 4:08 11-Until You Come Back To Me (That's What I'm Gonna Do)
DR10 -0.24 dB -13.14 dB 5:31 12-If You Still Love Her
DR10 -0.24 dB -11.86 dB 4:57 13-Ain't Nobody Like You
DR12 -0.48 dB -15.46 dB 4:23 14-Good Morning Heartache
DR8 -0.44 dB -9.98 dB 5:13 15-Release Me
DR11 -0.24 dB -14.32 dB 5:26 16-Don't Explain
––––––––––––––––––––––––––––––––––––––––

Number of tracks: 16
Official DR value: DR11

Samplerate: 44100 Hz
Channels: 2
Bits per sample: 16
Bitrate: 905 kbps
Codec: FLAC
================================================================================

Miki Howard - The Very Best Of Miki Howard (2001)

Miki Howard - The Very Best Of Miki Howard (2001)

All thanks to original releaser - arveranda

More interesting music in My Blog