Subcategories

Miles Davis - Bags' Groove (1957) [Analogue Productions’ Prestige Mono Series, Remastered 2014] Audio CD Layer

Posted By: Designol
Miles Davis - Bags' Groove (1957) [Analogue Productions’ Prestige Mono Series, Remastered 2014] Audio CD Layer

Miles Davis - Bags' Groove (1957)
Mastered by Kevin Gray at Cohearent Audio, 2014, Audio CD Layer
EAC | FLAC | Tracks (Cue&Log) ~ 250 Mb | Mp3 (CBR320) ~ 139 Mb | Scans included | 00:46:21
Bop, Hard Bop, Trumpet Jazz | Label: Analogue Productions, Prestige | # CPRJ 7109 SA

Hybrid Mono SACD for sale individually and as part of Analogue Productions’ Prestige Mono Series, Mini "old style" gatefold jacket packaging.

There are a multitude of reasons why Bags' Groove remains a cornerstone of the post-bop genre. Of course there will always be the lure of the urban myth surrounding the Christmas Eve 1954 session – featuring Thelonious Monk – which is documented on the two takes of the title track. There are obviously more tangible elements, such as Davis' practically telepathic runs with Sonny Rollins (tenor sax). Or Horace Silver's (piano) uncanny ability to provide a stream of chord progressions that supply a second inconspicuous lead without ever overpowering. Indeed, Davis' choice of former Dizzy Gillespie Orchestra and concurrent Modern Jazz Quartet members Milt Jackson (vibes), Kenny Clarke (drums), and Percy Heath (bass) is obviously well-informed. This combo became synonymous with the ability to tastefully improvise and provide bluesy bop lines in varied settings. The up-tempo and Latin-infused syncopation featured during the opening of "Airegin" flows into lines and minor-chord phrasings that would reappear several years later throughout Davis' Sketches of Spain epic. The fun and slightly maniacally toned "Oleo" features one of Heath's most impressive displays on Bags' Groove. His staccato accompaniment exhibits the effortless nature with which these jazz giants are able to incorporate round after round of solos onto the larger unit. Bags' Groove belongs as a cornerstone of all jazz collections. Likewise, the neophyte as well as the seasoned jazz enthusiast will find much to discover and rediscover throughout the disc.

Review by Lindsay Planer, Allmusic.com

Miles Davis - Bags' Groove (1957) [Analogue Productions’ Prestige Mono Series, Remastered 2014] Audio CD Layer



Miles Davis, trumpet
Sonny Rollins, tenor saxophone
Milt Jackson, vibraphone
Thelonious Monk, piano
Horace Silver, piano
Percy Heath, bass
Kenny Clarke, drums

Tracklist:

01. Bags' Groove (take 1) (11:16)
02. Bags' Groove (take 2) (9:24)
03. Airegin (5:02)
04. Oleo (5:15)
05. But Not for Me (take 2) (5:47)
06. Doxy (4:56)
07. But Not for Me (take 1) (4:40)


Exact Audio Copy V1.0 beta 3 from 29. August 2011

EAC extraction logfile from 31. August 2014, 17:20

Miles Davis / Bags' Groove

Used drive : Optiarc DVD RW AD-7280S Adapter: 0 ID: 1

Read mode : Secure
Utilize accurate stream : Yes
Defeat audio cache : Yes
Make use of C2 pointers : No

Read offset correction : 48
Overread into Lead-In and Lead-Out : No
Fill up missing offset samples with silence : Yes
Delete leading and trailing silent blocks : No
Null samples used in CRC calculations : Yes
Used interface : Native Win32 interface for Win NT & 2000
Gap handling : Appended to previous track

Used output format : User Defined Encoder
Selected bitrate : 1024 kBit/s
Quality : High
Add ID3 tag : No
Command line compressor : C:\Program Files\Exact Audio Copy\Flac\flac.exe
Additional command line options : -8 -V -T "ARTIST=%artist%" -T "TITLE=%title%" -T "ALBUM=%albumtitle%" -T "DATE=%year%" -T "TRACKNUMBER=%tracknr%" -T "GENRE=%genre%" -T "PERFORMER=%albuminterpret%" -T "COMPOSER=%composer%" %haslyrics%–tag-from-file=LYRICS="%lyricsfile%"%haslyrics% -T "ALBUMARTIST=%albumartist%" -T "DISCNUMBER=%cdnumber%" -T "TOTALDISCS=%totalcds%" -T "TOTALTRACKS=%numtracks%" -T "COMMENT=%comment%" %source% -o %dest%


TOC of the extracted CD

Track | Start | Length | Start sector | End sector
––––––––––––––––––––––––––––-
1 | 0:00.32 | 11:16.25 | 32 | 50756
2 | 11:16.57 | 9:23.60 | 50757 | 93041
3 | 20:40.42 | 5:02.33 | 93042 | 115724
4 | 25:43.00 | 5:15.37 | 115725 | 139386
5 | 30:58.37 | 5:46.50 | 139387 | 165386
6 | 36:45.12 | 4:55.69 | 165387 | 187580
7 | 41:41.06 | 4:40.15 | 187581 | 208595


Track 1

Filename F:\What Rips\Miles Davis - Bags' Groove\01. Bags' Groove (Take 1).wav

Pre-gap length 0:00:02.42

Peak level 76.4 %
Extraction speed 2.9 X
Track quality 100.0 %
Test CRC 75C74C03
Copy CRC 75C74C03
Track not present in AccurateRip database
Copy OK

Track 2

Filename F:\What Rips\Miles Davis - Bags' Groove\02. Bags' Groove (Take 2).wav

Pre-gap length 0:00:01.45

Peak level 72.9 %
Extraction speed 3.5 X
Track quality 100.0 %
Test CRC 2AAFC8A6
Copy CRC 2AAFC8A6
Track not present in AccurateRip database
Copy OK

Track 3

Filename F:\What Rips\Miles Davis - Bags' Groove\03. Airegen.wav

Pre-gap length 0:00:00.28

Peak level 76.3 %
Extraction speed 3.4 X
Track quality 99.9 %
Test CRC 70C42251
Copy CRC 70C42251
Track not present in AccurateRip database
Copy OK

Track 4

Filename F:\What Rips\Miles Davis - Bags' Groove\04. Oleo.wav

Pre-gap length 0:00:03.16

Peak level 65.0 %
Extraction speed 4.0 X
Track quality 100.0 %
Test CRC 4071F119
Copy CRC 4071F119
Track not present in AccurateRip database
Copy OK

Track 5

Filename F:\What Rips\Miles Davis - Bags' Groove\05. But Not For Me (Take 2).wav

Pre-gap length 0:00:02.85

Peak level 73.8 %
Extraction speed 4.2 X
Track quality 100.0 %
Test CRC 851C6B64
Copy CRC 851C6B64
Track not present in AccurateRip database
Copy OK

Track 6

Filename F:\What Rips\Miles Davis - Bags' Groove\06. Doxy.wav

Pre-gap length 0:00:02.81

Peak level 65.9 %
Extraction speed 4.4 X
Track quality 100.0 %
Test CRC B9C73265
Copy CRC B9C73265
Track not present in AccurateRip database
Copy OK

Track 7

Filename F:\What Rips\Miles Davis - Bags' Groove\07. But Not For Me (Take 1).wav

Pre-gap length 0:00:02.93

Peak level 68.5 %
Extraction speed 4.1 X
Track quality 99.9 %
Test CRC 095BDE6F
Copy CRC 095BDE6F
Track not present in AccurateRip database
Copy OK


None of the tracks are present in the AccurateRip database

No errors occurred

End of status report

==== Log checksum 1778F63473DC32E231F98A47E8351AFE033E5C357FCEB46D712053CFBB9F0A63 ====

[CUETools log; Date: 02.10.2017 21:42:50; Version: 2.1.5]
Pregap length 00:00:32.
[CTDB TOCID: 3Aj9FD_re8NB1ScrtQ9QmqppEP0-] found.
Track | CTDB Status
1 | (4/4) Accurately ripped
2 | (4/4) Accurately ripped
3 | (4/4) Accurately ripped
4 | (4/4) Accurately ripped
5 | (4/4) Accurately ripped
6 | (4/4) Accurately ripped
7 | (4/4) Accurately ripped
[AccurateRip ID: 000ea7fb-005425a8-530add07] found.
Track [ CRC | V2 ] Status
01 [843e6131|b5d66ace] (0+7/7) Accurately ripped
02 [3053e7f5|c281a090] (0+7/7) Accurately ripped
03 [d681ced9|1069fecb] (0+7/7) Accurately ripped
04 [733a0923|bbeda96a] (0+7/7) Accurately ripped
05 [d362ad77|841e5f64] (0+7/7) Accurately ripped
06 [286dfc21|a72cff6c] (0+7/7) Accurately ripped
07 [993f80af|e0c14a70] (0+7/7) Accurately ripped

Track Peak [ CRC32 ] [W/O NULL] [ LOG ]
– 76,4 [FE0C63CB] [D9CEC65C]
01 76,4 [75C74C03] [81FD7056] CRC32
02 72,9 [2AAFC8A6] [1748E800] CRC32
03 76,3 [70C42251] [2A35151A] CRC32
04 65,0 [4071F119] [DD965EC9] CRC32
05 73,8 [851C6B64] [46F77798] CRC32
06 65,9 [B9C73265] [1109BD98] CRC32
07 68,5 [095BDE6F] [FB207F4C] CRC32

foobar2000 1.2 / Dynamic Range Meter 1.1.1
log date: 2017-10-04 00:05:29

––––––––––––––––––––––––––––––––––––––––
Analyzed: Miles Davis / Bags' Groove
––––––––––––––––––––––––––––––––––––––––

DR Peak RMS Duration Track
––––––––––––––––––––––––––––––––––––––––
DR14 -2.33 dB -18.87 dB 11:16 01-Bags' Groove (take 1)
DR14 -2.74 dB -18.44 dB 9:24 02-Bags' Groove (take 2)
DR13 -2.35 dB -16.76 dB 5:02 03-Airegin
DR12 -3.73 dB -17.17 dB 5:15 04-Oleo
DR12 -2.64 dB -16.95 dB 5:47 05-But Not for Me (take 2)
DR13 -3.61 dB -18.07 dB 4:56 06-Doxy
DR12 -3.28 dB -17.30 dB 4:40 07-But Not for Me (take 1)
––––––––––––––––––––––––––––––––––––––––

Number of tracks: 7
Official DR value: DR13

Samplerate: 44100 Hz
Channels: 2
Bits per sample: 16
Bitrate: 687 kbps
Codec: FLAC
================================================================================

Miles Davis - Bags' Groove (1957) [Analogue Productions’ Prestige Mono Series, Remastered 2014] Audio CD Layer

Miles Davis - Bags' Groove (1957) [Analogue Productions’ Prestige Mono Series, Remastered 2014] Audio CD Layer