Tags
Language
Tags

Miles Davis - Cookin' with the Miles Davis Quintet (1956) [DCC, GZS-1044]

Posted By: v3122
Miles Davis - Cookin' with the Miles Davis Quintet (1956) [DCC, GZS-1044]

Miles Davis - Cookin' with the Miles Davis Quintet (1956)
EAC | Flac(Image) + Cue + Log & MP3 CBR 320Kbps
1993 | DCC, GZS-1044 | ~ 229 or 123 Mb | Scans
Jazz, Cool Jazz, Bop, Hard Bop

Cookin' is the first of four albums derived from the Miles Davis Quintet's fabled extended recording session on October 26, 1956; the concept being that the band would document its vast live-performance catalog in a studio environment, rather than preparing all new tracks for its upcoming long-player. The bounty of material in the band's live sets – as well as the overwhelming conviction in the quintet's studio sides – would produce the lion's share of the Cookin', Relaxin', Workin', and Steamin' albums. As these recordings demonstrate, there is an undeniable telepathic cohesion that allows this band – consisting of Miles Davis (trumpet), John Coltrane (tenor sax), Red Garland (piano), Paul Chambers (bass), and Philly Joe Jones (drums) – to work so efficiently both on the stage and the studio. This same unifying force is also undoubtedly responsible for the extrasensory dimensions scattered throughout these recordings. The immediate yet somewhat understated ability of each musician to react with ingenuity and precision is expressed in the consistency and singularity of each solo as it is maintained from one musician to the next without the slightest deviation. "Blues by Five" reveals the exceptional symmetry between Davis and Coltrane that allows them to complete each other's thoughts musically. Cookin' features the pairing of "Tune Up/When Lights Are Low" which is, without a doubt, a highlight not only of this mammoth session, but also the entire tenure of Miles Davis' mid-'50s quintet. All the elements converge upon this fundamentally swinging medley. Davis' pure-toned solos and the conversational banter that occurs with Coltrane, and later Garland during "When the Lights Are Low," resound as some of these musicians' finest moments.

by Lindsay Planer, allmusic
Miles Davis - Cookin' with the Miles Davis Quintet (1956):

Miles Davis - Cookin' with the Miles Davis Quintet (1956) [DCC, GZS-1044]

Tracklist:

01. My Funny Valentine [6:04]
02. Studio Chatter [0:25]
03. Blues By Five [10:02]
04. Airegin [4:29]
05. Tune Up / When Lights Are Low [13:14]
06. Just Squeeze Me [7:31]

Exact Audio Copy V1.3 from 2. September 2016

EAC extraction logfile from 17. November 2016, 9:13

MILES DAVIS / Cookin' (USA, DCC, GZS-1044)

Used drive : ASUS DRW-24B3ST Adapter: 1 ID: 2

Read mode : Secure
Utilize accurate stream : Yes
Defeat audio cache : Yes
Make use of C2 pointers : No

Read offset correction : 6
Overread into Lead-In and Lead-Out : No
Fill up missing offset samples with silence : Yes
Delete leading and trailing silent blocks : No
Null samples used in CRC calculations : Yes
Used interface : Native Win32 interface for Win NT & 2000

Used output format : User Defined Encoder
Selected bitrate : 1024 kBit/s
Quality : High
Add ID3 tag : No
Command line compressor : C:\Program Files\EAC(v.1.3)\WV\wavpack.exe
Additional command line options : -h -hh -m %source%


TOC of the extracted CD

Track | Start | Length | Start sector | End sector
––––––––––––––––––––––––––––-
1 | 0:00.00 | 6:03.48 | 0 | 27272
2 | 6:03.48 | 0:25.35 | 27273 | 29182
3 | 6:29.08 | 10:01.70 | 29183 | 74327
4 | 16:31.03 | 4:28.70 | 74328 | 94497
5 | 20:59.73 | 13:14.17 | 94498 | 154064
6 | 34:14.15 | 7:31.18 | 154065 | 187907


Range status and errors

Selected range

Filename F:\MILES DAVIS - Cookin' (1956) (JP 1993 DCC Compact Classics, Inc. • GZS-1044)\MILES DAVIS - Cookin' (USA, DCC, GZS-1044).wav

Peak level 100.0 %
Extraction speed 7.2 X
Range quality 100.0 %
Test CRC D3E1538D
Copy CRC D3E1538D
Copy OK

No errors occurred


AccurateRip summary

Track 1 accurately ripped (confidence 14) [F1D706AF] (AR v2)
Track 2 accurately ripped (confidence 14) [D9C2CAD3] (AR v2)
Track 3 accurately ripped (confidence 14) [41B1BB60] (AR v2)
Track 4 accurately ripped (confidence 14) [A2FF6515] (AR v2)
Track 5 accurately ripped (confidence 14) [7F3E5F29] (AR v2)
Track 6 accurately ripped (confidence 14) [9C0BDBA6] (AR v2)

All tracks accurately ripped

End of status report

==== Log checksum F46E10B92402A560BE266FAB1465A734A4CB24424CDE37AA5226D55CFC90B6CE ====

foobar2000 1.2.9 / Dynamic Range Meter 1.1.1
log date: 2016-11-20 20:08:34

––––––––––––––––––––––––––––––––––––––––
Analyzed: MILES DAVIS / Cookin' (USA, DCC, GZS-1044)
––––––––––––––––––––––––––––––––––––––––

DR Peak RMS Duration Track
––––––––––––––––––––––––––––––––––––––––
DR14 -0.67 dB -19.45 dB 6:04 01-My Funny Valentine
DR10 0.00 dB -20.01 dB 0:25 02-Studio Chatter
DR13 0.00 dB -15.67 dB 10:02 03-Blues By Five
DR11 0.00 dB -12.51 dB 4:29 04-Airegin
DR13 0.00 dB -15.36 dB 13:14 05-Tune Up / When Lights Are Low
DR15 -0.91 dB -19.92 dB 7:31 06-Just Squeeze Me
––––––––––––––––––––––––––––––––––––––––

Number of tracks: 6
Official DR value: DR13

Samplerate: 44100 Hz
Channels: 2
Bits per sample: 16
Bitrate: 657 kbps
Codec: FLAC

[CUETools log; Date: 20.11.2016 20:08:22; Version: 2.1.4]
[CTDB TOCID: mrd.ru1bMVWrQ.9ZAapmr91kKhU-] found.
Track | CTDB Status
1 | (16/17) Accurately ripped
2 | (17/17) Accurately ripped
3 | (17/17) Accurately ripped
4 | (17/17) Accurately ripped
5 | (17/17) Accurately ripped
6 | (17/17) Accurately ripped
[AccurateRip ID: 0008a7d7-0030171c-4909c906] found.
Track [ CRC | V2 ] Status
01 [bec0c3ed|f1d706af] (14+14/33) Accurately ripped
02 [31fa708c|d9c2cad3] (14+14/33) Accurately ripped
03 [cad86d12|41b1bb60] (14+14/33) Accurately ripped
04 [56e638b1|a2ff6515] (14+14/33) Accurately ripped
05 [afe95220|7f3e5f29] (14+14/33) Accurately ripped
06 [bc98d45c|9c0bdba6] (14+14/33) Accurately ripped
Offsetted by -1710:
01 [09e109f9] (00/33) No match (V2 was not tested)
02 [ebf496ac] (00/33) No match (V2 was not tested)
03 [7a75f83a] (00/33) No match (V2 was not tested)
04 [bdb38c0d] (00/33) No match (V2 was not tested)
05 [1f50ff84] (00/33) No match (V2 was not tested)
06 [c29b26ae] (00/33) No match (V2 was not tested)

Track Peak [ CRC32 ] [W/O NULL] [ LOG ]
– 100,0 [D3E1538D] [598C872B] CRC32
01 92,6 [EC8C9907] [3D6D5A5C]
02 100,0 [39FBA01F] [F9135808]
03 100,0 [E3880F7A] [83758284]
04 100,0 [D9E7DCA8] [06938920]
05 100,0 [FC9446AB] [BCE77305]
06 90,0 [4E123B9D] [5DCB72A7]

Miles Davis - Cookin' with the Miles Davis Quintet (1956) [DCC, GZS-1044]

All thanks go to the original releaser

Miles Davis in my Blog

Download Miles Davis - Cookin' with the Miles Davis Quintet (1956):