Subcategories

Miles Davis & Stan Getz - Move (2003) {Dynamic}

Posted By: tiburon
Miles Davis & Stan Getz - Move (2003) {Dynamic}

Miles Davis & Stan Getz - Move (2003) {Dynamic}
EAC 1.3 | FLAC tracks level 8 | Cue+Log+M3U | Scans 300dpi | 296MB + 5% Recovery
MP3 CBR 320 Kbps | 173MB + 5% Recovery
Genre: Bop, Cool

Live in Birdland! This is a good recording of a great show! (may actually be a complilation of several shows) It's really fun to hear the announcments of the next number that are apparently for radio audience. The sound quality is quite good considering the year (1952-3) and the band really swings during classics like 'Lullaby of Birdland', 'Stella by Starlight' and 'How High the Moon'.
Track List
01. Conception (Shearing) - 4:08
02. Ray's Idea (Brown-Fuller) - 5:55
03. That Old Black Magic (Arlen-Mercer) - 2:18
04. Max Is Making Wax (Pettiford) - 4:01
05. Woody 'n' You (Gillespie) - 5:41
06. Move (Best) - 6:17
07. Half Nelson (Davis) - 7:37
08. Down (Davis) - 7:23
09. Move (Best) - 6:24
10. The Squirrel (Dameron) - 8:44
11. Lady Bird (Dameron) - 5:38
12. Confirmation (Parker) - 5:49
13. Evance (Out of the Blue) (Davis) - 5:45

musicians
#1-5
Miles Davis - trumpet
J.J. Johnson - trombone
Stan Getz - tenor saxophone
Tadd Dameron - piano
Gene Ramey - bass
Art Blakey - drums
Recorded at WNYC Radio Broadcast, Birdland, New York on February 18, 1950.
#6-8:
Miles Davis - trumpet
J.J. Johnson - trombone
Sonny Rollins - tenor saxophone
Kenny Drew - piano
Tommy Potter - bass
Art Blakey - drums
Recorded at Birdland, New York on June 2, 1951.
#9-11:
Miles Davis - trumpet
Eddie "Lockjaw" Davis, Big Nick Nicholas - tenor saxophone
Billy Taylor - piano
Charles Mingus - bass
Art Blakey - drums
Recorded at Birdland, New York on September 29, 1951.
#12,13:
Miles Davis - trumpet
Jackie McLean - alto saxophone
Don Elliott - vibes, mellophone
Gil Coggins - piano
Connie Henry - bass
Connie Kay - drums
Recorded at Birdland, New York on May 2, 1952.


Exact Audio Copy V1.3 from 2. September 2016

EAC extraction logfile from 31. December 2017, 16:25

Miles Davis & Stan Getz / Move

Used drive : HL-DT-STDVDRAM GH24NS95 Adapter: 1 ID: 0

Read mode : Secure
Utilize accurate stream : Yes
Defeat audio cache : Yes
Make use of C2 pointers : No

Read offset correction : 6
Overread into Lead-In and Lead-Out : No
Fill up missing offset samples with silence : Yes
Delete leading and trailing silent blocks : No
Null samples used in CRC calculations : Yes
Used interface : Native Win32 interface for Win NT & 2000
Gap handling : Appended to previous track

Used output format : User Defined Encoder
Selected bitrate : 1024 kBit/s
Quality : High
Add ID3 tag : No
Command line compressor : C:\Program Files (x86)\Exact Audio Copy\Flac\flac.exe
Additional command line options : -8 -e -p -V -T "ARTIST=%artist%" -T "TITLE=%title%" -T "ALBUM=%albumtitle%" -T "DATE=%year%" -T "TRACKNUMBER=%tracknr%" -T "GENRE=%genre%" -T "PERFORMER=%albuminterpret%" -T "COMPOSER=%composer%" %haslyrics%–tag-from-file=LYRICS="%lyricsfile%"%haslyrics% -T "ALBUMARTIST=%albumartist%" -T "DISCNUMBER=%cdnumber%" -T "TOTALDISCS=%totalcds%" -T "TOTALTRACKS=%numtracks%" -T "COMMENT=%comment%" %source% -o %dest%


TOC of the extracted CD

Track | Start | Length | Start sector | End sector
––––––––––––––––––––––––––––-
1 | 0:00.00 | 4:08.02 | 0 | 18601
2 | 4:08.02 | 5:55.06 | 18602 | 45232
3 | 10:03.08 | 2:17.63 | 45233 | 55570
4 | 12:20.71 | 4:01.26 | 55571 | 73671
5 | 16:22.22 | 5:41.24 | 73672 | 99270
6 | 22:03.46 | 6:16.67 | 99271 | 127537
7 | 28:20.38 | 7:37.13 | 127538 | 161825
8 | 35:57.51 | 7:23.28 | 161826 | 195078
9 | 43:21.04 | 6:24.00 | 195079 | 223878
10 | 49:45.04 | 8:44.22 | 223879 | 263200
11 | 58:29.26 | 5:37.68 | 263201 | 288543
12 | 64:07.19 | 5:48.46 | 288544 | 314689
13 | 69:55.65 | 5:44.61 | 314690 | 340550


Track 1

Filename C:\EACRips\Miles Davis & Stan Getz - Move (2003) [FLAC] {DYN 2042}\01 - Conception.wav

Pre-gap length 0:00:02.00

Peak level 99.1 %
Extraction speed 1.1 X
Track quality 100.0 %
Test CRC 3305D8A4
Copy CRC 3305D8A4
Accurately ripped (confidence 1) [24BFBF2C] (AR v2)
Copy OK

Track 2

Filename C:\EACRips\Miles Davis & Stan Getz - Move (2003) [FLAC] {DYN 2042}\02 - Ray's Idea.wav

Pre-gap length 0:00:01.00

Peak level 99.1 %
Extraction speed 1.3 X
Track quality 100.0 %
Test CRC 4E7FEE44
Copy CRC 4E7FEE44
Accurately ripped (confidence 1) [E4561524] (AR v2)
Copy OK

Track 3

Filename C:\EACRips\Miles Davis & Stan Getz - Move (2003) [FLAC] {DYN 2042}\03 - That Old Black Magic.wav

Pre-gap length 0:00:01.00

Peak level 99.0 %
Extraction speed 1.3 X
Track quality 100.0 %
Test CRC 6472D543
Copy CRC 6472D543
Accurately ripped (confidence 1) [BE597DA5] (AR v2)
Copy OK

Track 4

Filename C:\EACRips\Miles Davis & Stan Getz - Move (2003) [FLAC] {DYN 2042}\04 - Max is Making Wax.wav

Pre-gap length 0:00:01.00

Peak level 99.1 %
Extraction speed 1.3 X
Track quality 99.9 %
Test CRC 2DD0DF78
Copy CRC 2DD0DF78
Accurately ripped (confidence 1) [5D9CA6D2] (AR v2)
Copy OK

Track 5

Filename C:\EACRips\Miles Davis & Stan Getz - Move (2003) [FLAC] {DYN 2042}\05 - Woody 'N' You.wav

Pre-gap length 0:00:01.00

Peak level 99.1 %
Extraction speed 1.6 X
Track quality 100.0 %
Test CRC E7CD7DB8
Copy CRC E7CD7DB8
Accurately ripped (confidence 1) [4F6A55C8] (AR v2)
Copy OK

Track 6

Filename C:\EACRips\Miles Davis & Stan Getz - Move (2003) [FLAC] {DYN 2042}\06 - Move.wav

Pre-gap length 0:00:01.00

Peak level 99.1 %
Extraction speed 1.8 X
Track quality 100.0 %
Test CRC FD1CED4E
Copy CRC FD1CED4E
Accurately ripped (confidence 1) [45DFDA12] (AR v2)
Copy OK

Track 7

Filename C:\EACRips\Miles Davis & Stan Getz - Move (2003) [FLAC] {DYN 2042}\07 - Half Nelson.wav

Pre-gap length 0:00:01.00

Peak level 96.9 %
Extraction speed 1.8 X
Track quality 99.9 %
Test CRC 481DBCD5
Copy CRC 481DBCD5
Accurately ripped (confidence 1) [84440E90] (AR v2)
Copy OK

Track 8

Filename C:\EACRips\Miles Davis & Stan Getz - Move (2003) [FLAC] {DYN 2042}\08 - Down.wav

Pre-gap length 0:00:01.00

Peak level 99.0 %
Extraction speed 2.1 X
Track quality 100.0 %
Test CRC 525E036E
Copy CRC 525E036E
Accurately ripped (confidence 1) [D76DBE80] (AR v2)
Copy OK

Track 9

Filename C:\EACRips\Miles Davis & Stan Getz - Move (2003) [FLAC] {DYN 2042}\09 - Move, Part 2.wav

Pre-gap length 0:00:01.00

Peak level 99.0 %
Extraction speed 2.2 X
Track quality 100.0 %
Test CRC FB9696BF
Copy CRC FB9696BF
Accurately ripped (confidence 1) [364CA9DA] (AR v2)
Copy OK

Track 10

Filename C:\EACRips\Miles Davis & Stan Getz - Move (2003) [FLAC] {DYN 2042}\10 - The Squirrel.wav

Pre-gap length 0:00:01.00

Peak level 99.1 %
Extraction speed 2.4 X
Track quality 100.0 %
Test CRC AF36189A
Copy CRC AF36189A
Accurately ripped (confidence 1) [4E5B2D45] (AR v2)
Copy OK

Track 11

Filename C:\EACRips\Miles Davis & Stan Getz - Move (2003) [FLAC] {DYN 2042}\11 - Lady Bird.wav

Pre-gap length 0:00:01.00

Peak level 99.2 %
Extraction speed 2.4 X
Track quality 100.0 %
Test CRC 68E43C15
Copy CRC 68E43C15
Accurately ripped (confidence 1) [702D4391] (AR v2)
Copy OK

Track 12

Filename C:\EACRips\Miles Davis & Stan Getz - Move (2003) [FLAC] {DYN 2042}\12 - Confirmation.wav

Pre-gap length 0:00:01.00

Peak level 99.1 %
Extraction speed 2.2 X
Track quality 99.9 %
Test CRC 10406B1B
Copy CRC 10406B1B
Accurately ripped (confidence 1) [1D3FCB7D] (AR v2)
Copy OK

Track 13

Filename C:\EACRips\Miles Davis & Stan Getz - Move (2003) [FLAC] {DYN 2042}\13 - Evance (Out of The Blue).wav

Pre-gap length 0:00:01.00

Peak level 98.7 %
Extraction speed 2.6 X
Track quality 100.0 %
Test CRC E9954976
Copy CRC E9954976
Accurately ripped (confidence 1) [C99EE1C6] (AR v2)
Copy OK


All tracks accurately ripped

No errors occurred

End of status report

–– CUETools DB Plugin V2.1.6

[CTDB TOCID: rN3GEnfaoD1Y6CbGI.ZfEKRQsX0-] found
Submit result: rN3GEnfaoD1Y6CbGI.ZfEKRQsX0- has been confirmed
Track | CTDB Status
1 | (5/5) Accurately ripped
2 | (5/5) Accurately ripped
3 | (5/5) Accurately ripped
4 | (5/5) Accurately ripped
5 | (5/5) Accurately ripped
6 | (5/5) Accurately ripped
7 | (5/5) Accurately ripped
8 | (5/5) Accurately ripped
9 | (5/5) Accurately ripped
10 | (5/5) Accurately ripped
11 | (5/5) Accurately ripped
12 | (5/5) Accurately ripped
13 | (5/5) Accurately ripped


==== Log checksum 36D15FD491C26F6EABB52BF5847E0FDAE1E235AEE8573330473B8FAA530CBFB0 ====

Miles Davis & Stan Getz - Move (2003) {Dynamic}


Thanks to the original ripper