Tags
Language
Tags

Miles Davis - The Lost Broadcast (1970) {Leftfield}

Posted By: tiburon
Miles Davis - The Lost Broadcast (1970) {Leftfield}

Miles Davis - The Lost Broadcast (1970) {Leftfield}
EAC 1.1 | FLAC tracks level 8 | Cue+Log+M3U | Full Scans 600dpi | 318MB + 5% Recovery
MP3 CBR 320 Kbps | 178MB + 5% Recovery
Genre: Jazz, Fusion, Hard-Bop
Miles Davis - The Lost Broadcast (1970) {Leftfield}

PREVIOUSLY UNRELEASED APRIL 9TH 1970, FILLMORE WEST RECORDING One of the most influential and innovative musicians of the 20th century, Miles Davis was, together with his musical groups, at the forefront of many major developments in jazz music, including bebop, cool jazz, hard bop, modal jazz, and jazz fusion. In 2006, Davis was inducted into the Rock and Roll Hall of Fame, the only jazz musician to date to have warranted entry, which recognized him as 'one of the key figures in the history of jazz' Throughout 1969, Davis' touring band included Wayne Shorter, Chick Corea, Dave Holland, and Jack DeJohnette; as the group never completed a studio recording, it has been subsequently characterized as the lost quintet by many critics. In 1970 this line-up, augmented at times by Keith Jarrett and Steve Grossman albeit often without Shorter, performed a number of shows and released a number of live albums recorded at the Fillmore venues - both East and West, in New York and San Francisco respectively and one such famed gig is the April 10th performance from Frisco, when Davis and group were supporting The Grateful Dead.
Track List
01. Directions
02. Miles Runs The Voodoo Down
03. This
04. It'S About That Time
05. I Fall In Love Too Easily
06. Sanctuary
07. Spanish Key
08. Bitches Brew/the Theme

musicians
Miles Davis - trumpet
Chick Corea - keyboards
Steve Grossman - bass
Dave Holland - bass
Jack De Johnette - drums
Airto Moreira - percussion


Exact Audio Copy V1.1 from 23. June 2015

EAC extraction logfile from 7. May 2016, 15:56

Miles Davis Sextet / The Lost Broadcast [LFMCD542]

Used drive : ATAPI DVD A DH16A6L Adapter: 1 ID: 1

Read mode : Secure
Utilize accurate stream : Yes
Defeat audio cache : Yes
Make use of C2 pointers : No

Read offset correction : 6
Overread into Lead-In and Lead-Out : No
Fill up missing offset samples with silence : Yes
Delete leading and trailing silent blocks : No
Null samples used in CRC calculations : Yes
Used interface : Native Win32 interface for Win NT & 2000
Gap handling : Appended to previous track

Used output format : User Defined Encoder
Selected bitrate : 1024 kBit/s
Quality : High
Add ID3 tag : No
Command line compressor : C:\Program Files\Exact Audio Copy\flac.exe
Additional command line options : -8 -V -T "ARTIST=%artist%" -T "TITLE=%title%" -T "ALBUM=%albumtitle%" -T "DATE=%year%" -T "TRACKNUMBER=%tracknr%" -T "GENRE=%genre%" -T "PERFORMER=%albuminterpret%" -T "COMPOSER=%composer%" %haslyrics%–tag-from-file=LYRICS="%lyricsfile%"%haslyrics% -T "ALBUMARTIST=%albumartist%" -T "DISCNUMBER=%cdnumber%" -T "TOTALDISCS=%totalcds%" -T "TOTALTRACKS=%numtracks%" -T "COMMENT=%comment%" %source% -o %dest%


TOC of the extracted CD

Track | Start | Length | Start sector | End sector
––––––––––––––––––––––––––––-
1 | 0:00.00 | 6:59.36 | 0 | 31460
2 | 6:59.36 | 10:07.47 | 31461 | 77032
3 | 17:07.08 | 4:31.52 | 77033 | 97409
4 | 21:38.60 | 11:58.43 | 97410 | 151302
5 | 33:37.28 | 1:59.38 | 151303 | 160265
6 | 35:36.66 | 3:19.37 | 160266 | 175227
7 | 38:56.28 | 13:01.56 | 175228 | 233858
8 | 51:58.09 | 13:49.66 | 233859 | 296099


Track 1

Filename D:\Music\Vuze\Miles Davis - The Lost Broadcast (1970) [FLAC]\01 - Directions.wav

Pre-gap length 0:00:02.00

Peak level 98.8 %
Extraction speed 2.0 X
Track quality 100.0 %
Test CRC CA9C7CC6
Copy CRC CA9C7CC6
Accurately ripped (confidence 1) [4F6D4D7A] (AR v2)
Copy OK

Track 2

Filename D:\Music\Vuze\Miles Davis - The Lost Broadcast (1970) [FLAC]\02 - Miles Runs the Voodoo Down.wav

Peak level 94.2 %
Extraction speed 2.4 X
Track quality 100.0 %
Test CRC 425B479D
Copy CRC 425B479D
Accurately ripped (confidence 1) [073958A5] (AR v2)
Copy OK

Track 3

Filename D:\Music\Vuze\Miles Davis - The Lost Broadcast (1970) [FLAC]\03 - This.wav

Peak level 90.9 %
Extraction speed 2.6 X
Track quality 100.0 %
Test CRC B5FA9FBC
Copy CRC B5FA9FBC
Accurately ripped (confidence 1) [D00ADE06] (AR v2)
Copy OK

Track 4

Filename D:\Music\Vuze\Miles Davis - The Lost Broadcast (1970) [FLAC]\04 - It's About That Time.wav

Peak level 89.2 %
Extraction speed 3.1 X
Track quality 100.0 %
Test CRC 53DED889
Copy CRC 53DED889
Accurately ripped (confidence 1) [07DD4D4D] (AR v2)
Copy OK

Track 5

Filename D:\Music\Vuze\Miles Davis - The Lost Broadcast (1970) [FLAC]\05 - I Fall in Love Too Easily.wav

Peak level 54.1 %
Extraction speed 1.6 X
Track quality 99.9 %
Test CRC FFB8E2E4
Copy CRC FFB8E2E4
Accurately ripped (confidence 1) [1E4AAF07] (AR v2)
Copy OK

Track 6

Filename D:\Music\Vuze\Miles Davis - The Lost Broadcast (1970) [FLAC]\06 - Sanctuary.wav

Peak level 79.6 %
Extraction speed 3.0 X
Track quality 100.0 %
Test CRC A3462E2F
Copy CRC A3462E2F
Accurately ripped (confidence 1) [EAE3AAD6] (AR v2)
Copy OK

Track 7

Filename D:\Music\Vuze\Miles Davis - The Lost Broadcast (1970) [FLAC]\07 - Spanish Key.wav

Peak level 79.3 %
Extraction speed 3.7 X
Track quality 100.0 %
Test CRC 81568916
Copy CRC 81568916
Accurately ripped (confidence 1) [D78CC4A5] (AR v2)
Copy OK

Track 8

Filename D:\Music\Vuze\Miles Davis - The Lost Broadcast (1970) [FLAC]\08 - Bitches Brew.wav

Peak level 80.8 %
Extraction speed 4.0 X
Track quality 100.0 %
Test CRC 584BCF80
Copy CRC 584BCF80
Accurately ripped (confidence 1) [D1F1D6CB] (AR v2)
Copy OK


All tracks accurately ripped

No errors occurred

End of status report

–– CUETools DB Plugin V2.1.6

[CTDB TOCID: YckrwhjN22nPrgFWKT8PGgRQ7Qw-] found
Submit result: already submitted
Track | CTDB Status
1 | (3/3) Accurately ripped
2 | (3/3) Accurately ripped
3 | (3/3) Accurately ripped
4 | (3/3) Accurately ripped
5 | (3/3) Accurately ripped
6 | (3/3) Accurately ripped
7 | (3/3) Accurately ripped
8 | (3/3) Accurately ripped


==== Log checksum 40468AA8E4F3221DC72F71A3CAD4300BA8DB04A600BC299E20A97536AD2458D1 ====


––––––––––––––––––––––––––––––––––––––––
Analyzed: Miles Davis Sextet / The Lost Broadcast [LFMCD542] (1-7)
Miles Davis Sextet / The Lost Broadcast [LFMCD542] (8)
––––––––––––––––––––––––––––––––––––––––

DR Peak RMS Duration Track
––––––––––––––––––––––––––––––––––––––––
DR9 -0.10 dB -10.93 dB 6:59 01-Directions
DR10 -0.52 dB -13.91 dB 10:08 02-Miles Runs the Voodoo Down
DR11 -0.83 dB -16.01 dB 4:32 03-This
DR9 -0.99 dB -14.61 dB 11:59 04-It's About That Time
DR9 -5.34 dB -21.61 dB 2:00 05-I Fall in Love Too Easily
DR10 -1.98 dB -16.49 dB 3:19 06-Sanctuary
DR11 -2.01 dB -15.23 dB 13:02 07-Spanish Key
DR12 -1.85 dB -17.67 dB 13:50 08-Bitches Brew
––––––––––––––––––––––––––––––––––––––––

Number of tracks: 8
Official DR value: DR10

Samplerate: 44100 Hz
Channels: 2
Bits per sample: 16
Bitrate: 605 kbps
Codec: FLAC
================================================================================

Miles Davis - The Lost Broadcast (1970) {Leftfield}
Miles Davis - The Lost Broadcast (1970) {Leftfield}
Miles Davis - The Lost Broadcast (1970) {Leftfield}


Rip by Mazeppa