Tags
Language
Tags

Milt Jackson - La Ronde Suite (2005)

Posted By: v3122
Milt Jackson - La Ronde Suite (2005)

Milt Jackson - La Ronde Suite (2005)
EAC | Flac(Image) + Cue + Log & MP3 CBR 320Kbps
Quadromania, 222446-444 | ~ 1092 or 559 Mb | Artwork -> 34 Mb
Hard Bop, Post-Bop

~ 4 x CD, Compilation, Remastered ~

Milt Jackson (born January 1, 1923, Detroit, Michigan, USA - died October 9, 1999, New York City, New York, USA) was an American jazz vibraphonist, pianist, composer and bandleader.
He played with numerous artists, including Dizzy Gillespie, Charlie Parker, Thelonious Monk, Howard McGhee, Woody Herman, John Coltrane, The Modern Jazz Quartet and many others as well as in his own bands.
Brother of Oliver Jackson & Alvin Jackson.
Milt Jackson - La Ronde Suite (2005):

Tracklist CD1:

01. Dynamo B (D. Gillespie)
02. 'Round About Midnight (C. Williams – T. Monk)
03. 52nd Street Theme (T. Monk)
04. Anthropology (D. Gillespie – C. Parker)
05. Smokey Hollow Jump (R. Brown – W. Fuller)
06. Night Music (H. McGhee)
07. Stop Time Blues (H. McGhee)
08. Misterioso (T. Monk)
09. Epistrophy (T. Monk – K. Clarke)
10. I Mean You (T. Monk)
11. All the Things You Are (J. Kern – O. Hammerstein)
12. I Should Care (Cahn – Stordahl – Weston)
13. I Should Care (Alternate Take)
14. Symphonette (T. Dameron)
15. Conglomeration (M. Jackson)
16. Bruz (M. Jackson)
17. You Go to My Head (Coots – Gillespie)
18. Hearing Bells (M. Jackson)
19. Bluesology (M. Jackson)
20. Bubu (B. Massey – M. Jackson)

EAC extraction logfile from 7. April 2007, 19:57 for CD
Milt Jackson / La Ronde Suite CD1

Used drive : HL-DT-STDVDRAM GSA-H10A Adapter: 1 ID: 0
Read mode : Secure with NO C2, accurate stream, disable cache
Read offset correction : 667
Overread into Lead-In and Lead-Out : No

Used output format : Internal WAV Routines
44.100 Hz; 16 Bit; Stereo

Other options :
Fill up missing offset samples with silence : Yes
Delete leading and trailing silent blocks : No
Installed external ASPI interface


Range status and errors
Selected range
Filename C:\Converted Music\Milt Jackson - La Ronde Suite CD1.wav

Peak level 100.0 %
Range quality 99.9 %
CRC C473C2AC
Copy OK

No errors occured

End of status report


[CUETools log; Date: 17.09.2021 15:00:58; Version: 2.1.4]
[AccurateRip ID: 002c0870-02870530-200e3114] found.
Track [ CRC | V2 ] Status
01 [915b3ed2|824b4a04] (0+6/6) Accurately ripped
02 [21b1e365|a508c9f9] (0+6/6) Accurately ripped
03 [2cf15367|3a3a08e4] (0+6/6) Accurately ripped
04 [840cca99|30f14832] (0+6/6) Accurately ripped
05 [4eee6257|422922f9] (0+6/6) Accurately ripped
06 [d72cd2f6|0223660e] (0+6/6) Accurately ripped
07 [5e69cb99|590ded16] (0+6/6) Accurately ripped
08 [b71e9596|c05bd52d] (0+6/6) Accurately ripped
09 [6a0a4e55|a03d99a5] (0+6/6) Accurately ripped
10 [dd5e8a22|2a306f43] (0+6/6) Accurately ripped
11 [007f99c1|e55d3056] (0+6/6) Accurately ripped
12 [b7b126bc|e693193e] (0+6/6) Accurately ripped
13 [a7647814|6aca4501] (0+6/6) Accurately ripped
14 [7f1e9cb0|b9243d01] (0+6/6) Accurately ripped
15 [f81a8d09|e369bd10] (0+6/6) Accurately ripped
16 [4687a178|eb3e9034] (0+6/6) Accurately ripped
17 [1f974507|aec69d0f] (0+6/6) Accurately ripped
18 [8c64b426|a84fba61] (0+6/6) Accurately ripped
19 [e8611458|e278be4b] (0+6/6) Accurately ripped
20 [51889404|21710e3c] (0+6/6) Accurately ripped

Track Peak [ CRC32 ] [W/O NULL] [ LOG ]
– 100,0 [C473C2AC] [9EC95BD2] CRC32
01 98,9 [D3951DED] [00478682]
02 99,6 [1111A116] [48583135]
03 99,2 [6465A00E] [CA6C6B33]
04 99,5 [A4BD4233] [3F15A6B0]
05 99,6 [6D13989E] [1DC96F62]
06 99,7 [59AA48DE] [1320BCEA]
07 99,7 [85FC2C37] [5609032F]
08 100,0 [2880323E] [C3870956]
09 100,0 [8FCE5251] [6B45EC34]
10 99,9 [1AF6ED8F] [3817B8CB]
11 99,9 [7FF40207] [D29AEF44]
12 99,9 [734242CD] [5AE0FC82]
13 99,9 [B191ED9A] [D20E98AF]
14 100,0 [651E0768] [4E6A9927]
15 100,0 [90CBF40E] [32062F4F]
16 99,5 [EAD488A6] [642845E0]
17 99,3 [A84998B0] [2B4C90DD]
18 99,9 [B2F55E16] [C47FFBA9]
19 100,0 [F64E179F] [79B9160E]
20 99,9 [DA4D6BAA] [734937AB]


Tracklist CD2:

01. Tahiti (Milt Jackson)
02. Lillie (Milt Jackson)
03. Bags' Groove (Milt Jackson)
04. What's New (B. Haggart – J. Burke)
05. Don't Get Around Much Anymore (D. Ellington – B. Russell)
06. On the Scene (Lou Donaldson)
07. Bag's Groove (Milt Jackson)
08. Bemsha Swing (Monk – Best)
09. The Man I Love (G. & I. Gershwin)
10. Swing Spring (M. Davis)

EAC extraction logfile from 7. April 2007, 20:10 for CD
Milt Jackson / La Ronde Suite CD2

Used drive : HL-DT-STDVDRAM GSA-H10A Adapter: 1 ID: 0
Read mode : Secure with NO C2, accurate stream, disable cache
Read offset correction : 667
Overread into Lead-In and Lead-Out : No

Used output format : Internal WAV Routines
44.100 Hz; 16 Bit; Stereo

Other options :
Fill up missing offset samples with silence : Yes
Delete leading and trailing silent blocks : No
Installed external ASPI interface


Range status and errors
Selected range
Filename C:\Converted Music\Milt Jackson - La Ronde Suite CD2.wav

Peak level 100.0 %
Range quality 100.0 %
CRC A7B34AC5
Copy OK

No errors occured

End of status report


[CUETools log; Date: 17.09.2021 15:14:55; Version: 2.1.4]
[AccurateRip ID: 00103c61-0089c662-860d410a] found.
Track [ CRC | V2 ] Status
01 [19db93a1|f1a05b03] (0+6/6) Accurately ripped
02 [9d9d2916|c8b28def] (0+6/6) Accurately ripped
03 [be604b62|380610bf] (0+6/6) Accurately ripped
04 [a20ee891|22a9487c] (0+6/6) Accurately ripped
05 [f07bfaf7|78f81287] (0+6/6) Accurately ripped
06 [5eca6010|5ad15af8] (0+6/6) Accurately ripped
07 [ca15a9d0|5e6d900b] (0+6/6) Accurately ripped
08 [9b277caf|12132db2] (0+6/6) Accurately ripped
09 [6b1dec64|118e8181] (0+6/6) Accurately ripped
10 [0ec1eb35|caca209b] (0+6/6) Accurately ripped

Track Peak [ CRC32 ] [W/O NULL] [ LOG ]
– 100,0 [A7B34AC5] [96A807C8] CRC32
01 99,5 [05E9B674] [1BCABBFA]
02 99,8 [C50B4E17] [8A63FA86]
03 99,9 [58EA37BB] [D7A208BA]
04 99,9 [DD23F9B8] [409441A5]
05 99,9 [B625E934] [90C49F25]
06 98,9 [F9149738] [AC8CA4F6]
07 98,1 [57D47226] [D901B08B]
08 99,9 [22E9434A] [77E50E23]
09 99,9 [AD735FA9] [1154AA4D]
10 100,0 [51C87FA2] [CC0D1A03]


Tracklist CD3:

01. Milt Meets Sid (Jackson)
02. D & E (Jackson)
03. Yesterdays (Harbach - Kern)
04. Between the Devil and the Deep Blue Sea (Arlen – Koehler)
05. Autumn Breeze (Jackson)
06. Moving Nicely (Jackson)
07. Bluesology (Jackson)
08. Round About Midnight (Monk)
09. Love Me Pretty Baby (Gillespie)
10. Heart and Soul (Loesser – Carmichael)
11. True Blues (Jackson)
12. Ralph's New Blues (Jackson)
13. All of You (C. Porter)
14. I'll Remember April (Raye – DePaul)
15. Gershwin Medley
a. Soon (Gershwin)
b. For You, For Me (Gershwin)
c. Forevermore (Gershwin)
d. Love Walked In (Gershwin)
e. Our Love Is Here to Stay (Gershwin)

EAC extraction logfile from 7. April 2007, 20:40 for CD
Milt Jackson / La Ronde Suite CD3

Used drive : HL-DT-STDVDRAM GSA-H10A Adapter: 1 ID: 0
Read mode : Secure with NO C2, accurate stream, disable cache
Read offset correction : 667
Overread into Lead-In and Lead-Out : No

Used output format : Internal WAV Routines
44.100 Hz; 16 Bit; Stereo

Other options :
Fill up missing offset samples with silence : Yes
Delete leading and trailing silent blocks : No
Installed external ASPI interface


Range status and errors
Selected range
Filename C:\Converted Music\Milt Jackson - La Ronde Suite CD3\Milt Jackson - La Ronde Suite CD3.wav

Peak level 100.0 %
Range quality 100.0 %
CRC 89203138
Copy OK

No errors occured

End of status report


[CUETools log; Date: 17.09.2021 15:18:14; Version: 2.1.4]
[AccurateRip ID: 001a8c75-0135040d-d60d7b0f] found.
Track [ CRC | V2 ] Status
01 [3815a46c|729ad09d] (0+6/6) Accurately ripped
02 [dcd31f6e|9ad5b495] (0+6/6) Accurately ripped
03 [151b299d|78a137a5] (0+6/6) Accurately ripped
04 [2f22e462|56d5132c] (0+6/6) Accurately ripped
05 [e34fedf9|9fc6e28a] (0+5/5) Accurately ripped
06 [c3ef1405|354975f2] (0+6/6) Accurately ripped
07 [6051ceb2|822530b9] (0+6/6) Accurately ripped
08 [9a98781d|46e0bb7b] (0+6/6) Accurately ripped
09 [f7963a42|71b4275c] (0+6/6) Accurately ripped
10 [ab873f6a|12f2cacb] (0+6/6) Accurately ripped
11 [bb59a356|99a16d0c] (0+6/6) Accurately ripped
12 [cd8dd10d|e0972467] (0+6/6) Accurately ripped
13 [6010812d|5953f7ee] (0+6/6) Accurately ripped
14 [7cbedc23|4597e6ed] (0+6/6) Accurately ripped
15 [153e24e4|a881077f] (0+6/6) Accurately ripped

Track Peak [ CRC32 ] [W/O NULL] [ LOG ]
– 100,0 [89203138] [4D4E6958] CRC32
01 98,3 [DA5EA0ED] [1A7D5004]
02 100,0 [8401FA8E] [9E60BAAA]
03 99,5 [623BF0FE] [8673932A]
04 99,9 [3477C00F] [941CA555]
05 100,0 [3D72177D] [8F930FF5]
06 100,0 [45057D0F] [8FF8952B]
07 96,8 [F541EE40] [EC559999]
08 98,5 [77A9357C] [5BA2098F]
09 100,0 [28A215AA] [259EB0BC]
10 99,1 [E954DE68] [E9D3AFC6]
11 99,9 [CBBA0070] [9BBE8E9D]
12 91,2 [13AB9681] [33314A7A]
13 96,4 [559F1759] [D74C77B0]
14 98,8 [AAE5C126] [C09900EC]
15 99,0 [88A2E7B7] [ACAB48B9]


Tracklist CD4:

01. Softly as in The Morning Sunrise (Hammerstein – Romberg)
02. Concorde (Lewis)
03. Django (Lewis)
04. One Bass Hit (Gillespie)
05. La Ronde Suite (Lewis)
a. Piano
b. Bass
c. Vibes
d. Drums
06. The Queen’s Fancy (Lewis)
07. Delaunay’s Dilemma (Lewis)
08. Autumn in New York (V. Duke)
09. Bute Not for Me (G. Gershwin)
10. Milano (Lewis)
11. All the Things You Are (Hammerstein – Kern)
12. La Ronde (Lewis)
13. Vendome (Lewis)
14. Rose of the Rio Grande (Warren – Gorman – Leslie)

EAC extraction logfile from 7. April 2007, 20:56 for CD
Milt Jackson / La Ronde Suite CD4

Used drive : HL-DT-STDVDRAM GSA-H10A Adapter: 1 ID: 0
Read mode : Secure with NO C2, accurate stream, disable cache
Read offset correction : 667
Overread into Lead-In and Lead-Out : No

Used output format : Internal WAV Routines
44.100 Hz; 16 Bit; Stereo

Other options :
Fill up missing offset samples with silence : Yes
Delete leading and trailing silent blocks : No
Installed external ASPI interface


Range status and errors
Selected range
Filename C:\Converted Music\Milt Jackson - La Ronde Suite CD4\Milt Jackson - La Ronde Suite CD4.wav

Peak level 100.0 %
Range quality 100.0 %
CRC A6C7F8E5
Copy OK

No errors occured

End of status report


[CUETools log; Date: 17.09.2021 15:22:08; Version: 2.1.4]
[AccurateRip ID: 0024c966-017b5593-a60e9b0e] found.
Track [ CRC | V2 ] Status
01 [efe1516a|374c3220] (0+6/6) Accurately ripped
02 [8ba40e25|c4dd9dbc] (0+6/6) Accurately ripped
03 [ccee689b|c29a5211] (0+6/6) Accurately ripped
04 [7488cf3a|fc2444d7] (0+6/6) Accurately ripped
05 [7c4bb28a|90b5d8e5] (0+6/6) Accurately ripped
06 [7dd06629|936786f2] (0+6/6) Accurately ripped
07 [35987f08|3dd5cbc6] (0+6/6) Accurately ripped
08 [23f57700|038db1ab] (0+6/6) Accurately ripped
09 [d86a16fe|2cf5add6] (0+6/6) Accurately ripped
10 [cc672c4d|5a2aef13] (0+5/5) Accurately ripped
11 [307bef5d|152baaad] (0+6/6) Accurately ripped
12 [0fb4a2e0|a16eccdf] (0+5/5) Accurately ripped
13 [9cf1074e|eb8483a6] (0+5/5) Accurately ripped
14 [27817731|85d380d0] (0+6/6) Accurately ripped

Track Peak [ CRC32 ] [W/O NULL] [ LOG ]
– 100,0 [A6C7F8E5] [589A052D] CRC32
01 99,9 [0B88C2C5] [D7A75926]
02 100,0 [8346DCE9] [41A60337]
03 94,3 [88A18F6E] [9F773186]
04 97,4 [55FD46D9] [32D0047F]
05 96,2 [2300058A] [5C2A1C96]
06 100,0 [E2EBD836] [C1748836]
07 99,4 [57E43759] [A588804F]
08 99,9 [E2C96B13] [E7F89536]
09 99,3 [E64AD5D6] [EBAC7B0B]
10 97,4 [FC99F27D] [30BB25A5]
11 99,0 [F44BC2BB] [FC74A955]
12 100,0 [E6CFB7A5] [A92E3D9B]
13 96,9 [3483D7C8] [A55BF13E]
14 99,3 [E10DDCF0] [1C8823FF]


Milt Jackson - La Ronde Suite (2005)

All thanks go to the original releaser

Milt Jackson in my Blog

Download Milt Jackson - La Ronde Suite (2005):