Tags
Language
Tags

Mina - The Platinum Collection 2 (2006) (Repost)

Posted By: tirexiss
Mina - The Platinum Collection 2 (2006) (Repost)

Mina - The Platinum Collection 2 (2006)
EAC | FLAC (image+.cue, log) | Covers Included | 03:36:03 | 1,47 Gb
Genre: Pop, Chanson | Label: EMI | Catalog: 094635426823

After the remarkable sales of the first volume, emi releases the second special price 3cd collection including some of the best hits by mina. Including some of her recent hits and duets with adriano celentano, audio 2 and piero pelu'. The tracklisting also includes the track "oggi sono io" which was available only on the dvd "mina in studio".

Mina - The Platinum Collection 2 (2006) (Repost)

Track List:

CD 1:
01. Michelle
02. La Pioggia di Marzo (Aguas de Marco)
03. Fiori Rosa Fiori di Pesco
04. La Mente Torna
05. Sognado
06. La Canzone di Marinella
07. Quand'ero Piccola
08. Viva Lei
09. My Love
10. Eccomi
11. Anche Tu
12. Rock and Roll Star
13. Nudu
14. Ballata d'Autunno
15. I Only Have Eyes for You
16. Se Telefonando
17. Un Anno d'Ammore

Exact Audio Copy V1.0 beta 3 from 29. August 2011

EAC extraction logfile from 27. May 2012, 10:51

Mina / The Platinum Collection, Vol. 2

Used drive : ATAPI DVD A DH16A6S Adapter: 3 ID: 2

Read mode : Secure
Utilize accurate stream : Yes
Defeat audio cache : Yes
Make use of C2 pointers : No

Read offset correction : 6
Overread into Lead-In and Lead-Out : No
Fill up missing offset samples with silence : Yes
Delete leading and trailing silent blocks : No
Null samples used in CRC calculations : Yes
Used interface : Installed external ASPI interface

Used output format : User Defined Encoder
Selected bitrate : 896 kBit/s
Quality : High
Add ID3 tag : No
Command line compressor : C:\Program Files (x86)\Exact Audio Copy\FLAC\FLAC.EXE
Additional command line options : -T "artist=%artist%" -T "title=%title%" -T "album=%albumtitle%" -T "date=%year%" -T "tracknumber=%tracknr%" -T "genre=%genre%" -8 %source%


TOC of the extracted CD

Track | Start | Length | Start sector | End sector
––––––––––––––––––––––––––––-
1 | 0:00.00 | 5:32.40 | 0 | 24939
2 | 5:32.40 | 3:37.50 | 24940 | 41264
3 | 9:10.15 | 3:03.42 | 41265 | 55031
4 | 12:13.57 | 4:28.18 | 55032 | 75149
5 | 16:42.00 | 4:01.62 | 75150 | 93286
6 | 20:43.62 | 3:14.03 | 93287 | 107839
7 | 23:57.65 | 2:47.20 | 107840 | 120384
8 | 26:45.10 | 3:18.67 | 120385 | 135301
9 | 30:04.02 | 4:14.15 | 135302 | 154366
10 | 34:18.17 | 3:30.73 | 154367 | 170189
11 | 37:49.15 | 4:56.25 | 170190 | 192414
12 | 42:45.40 | 3:28.60 | 192415 | 208074
13 | 46:14.25 | 4:02.22 | 208075 | 226246
14 | 50:16.47 | 5:43.70 | 226247 | 252041
15 | 56:00.42 | 3:13.50 | 252042 | 266566
16 | 59:14.17 | 2:57.23 | 266567 | 279864
17 | 62:11.40 | 3:11.50 | 279865 | 294239


Range status and errors

Selected range

Filename F:\EAC - CD\Mina - The Platinum Collection, Vol. 2.wav

Peak level 99.9 %
Extraction speed 6.9 X
Range quality 99.9 %
Copy CRC 805CDF45
Copy OK

No errors occurred


AccurateRip summary

Track 1 accurately ripped (confidence 2) [CF68796C] (AR v2)
Track 2 accurately ripped (confidence 2) [87C86400] (AR v2)
Track 3 accurately ripped (confidence 2) [DFF2F54A] (AR v2)
Track 4 accurately ripped (confidence 2) [EFC90A82] (AR v2)
Track 5 accurately ripped (confidence 2) [3D05DF3C] (AR v2)
Track 6 accurately ripped (confidence 2) [3A646239] (AR v2)
Track 7 accurately ripped (confidence 2) [FE0FE78F] (AR v2)
Track 8 accurately ripped (confidence 2) [089F67E3] (AR v2)
Track 9 accurately ripped (confidence 2) [63E008D6] (AR v2)
Track 10 accurately ripped (confidence 2) [15CDCDE8] (AR v2)
Track 11 accurately ripped (confidence 2) [3FA7C260] (AR v2)
Track 12 accurately ripped (confidence 2) [15CF650C] (AR v2)
Track 13 accurately ripped (confidence 2) [3FD0B6B1] (AR v2)
Track 14 accurately ripped (confidence 2) [4B49D181] (AR v2)
Track 15 accurately ripped (confidence 2) [2D3BDD6F] (AR v2)
Track 16 accurately ripped (confidence 2) [9171C314] (AR v2)
Track 17 accurately ripped (confidence 2) [4C2E9BF9] (AR v2)

All tracks accurately ripped

End of status report

==== Log checksum 9C17C14B9C5CD4BFA4A0775916984450F078EFFC9B438E452A34DCC5FDEEA0BD ====

CD 2:
01. Ormai
02. Ahi, Mì Amor
03. Anche un Iomo
04. This Masquerade
05. Ritratto in Bianco E Nero
06. Perfetto Non So
07. Just the Way You Are
08. Non Ho Difese
09. Devi Dirmi di Si
10. Cosa Manca
11. La Nave
12. Proprio Come Sei
13. Piu di Cosi
14. La Montagna
15. Serpenti
16. Lo Faresti
17. Ma Chi é Quello Lì

Exact Audio Copy V1.0 beta 3 from 29. August 2011

EAC extraction logfile from 27. May 2012, 11:11

Mina / The Platinum Collection, Vol. 2 (Disc 2)

Used drive : ATAPI DVD A DH16A6S Adapter: 3 ID: 2

Read mode : Secure
Utilize accurate stream : Yes
Defeat audio cache : Yes
Make use of C2 pointers : No

Read offset correction : 6
Overread into Lead-In and Lead-Out : No
Fill up missing offset samples with silence : Yes
Delete leading and trailing silent blocks : No
Null samples used in CRC calculations : Yes
Used interface : Installed external ASPI interface

Used output format : User Defined Encoder
Selected bitrate : 896 kBit/s
Quality : High
Add ID3 tag : No
Command line compressor : C:\Program Files (x86)\Exact Audio Copy\FLAC\FLAC.EXE
Additional command line options : -T "artist=%artist%" -T "title=%title%" -T "album=%albumtitle%" -T "date=%year%" -T "tracknumber=%tracknr%" -T "genre=%genre%" -8 %source%


TOC of the extracted CD

Track | Start | Length | Start sector | End sector
––––––––––––––––––––––––––––-
1 | 0:00.00 | 4:10.50 | 0 | 18799
2 | 4:10.50 | 6:14.30 | 18800 | 46879
3 | 10:25.05 | 4:48.02 | 46880 | 68481
4 | 15:13.07 | 4:21.15 | 68482 | 88071
5 | 19:34.22 | 5:32.30 | 88072 | 113001
6 | 25:06.52 | 3:59.63 | 113002 | 130989
7 | 29:06.40 | 5:30.05 | 130990 | 155744
8 | 34:36.45 | 4:04.25 | 155745 | 174069
9 | 38:40.70 | 4:13.02 | 174070 | 193046
10 | 42:53.72 | 4:01.20 | 193047 | 211141
11 | 46:55.17 | 4:54.45 | 211142 | 233236
12 | 51:49.62 | 4:03.48 | 233237 | 251509
13 | 55:53.35 | 4:14.25 | 251510 | 270584
14 | 60:07.60 | 3:52.25 | 270585 | 288009
15 | 64:00.10 | 3:23.67 | 288010 | 303301
16 | 67:24.02 | 4:11.13 | 303302 | 322139
17 | 71:35.15 | 4:22.25 | 322140 | 341814


Range status and errors

Selected range

Filename F:\EAC - CD\Mina - The Platinum Collection, Vol. 2 (Disc 2).wav

Peak level 99.9 %
Extraction speed 9.6 X
Range quality 100.0 %
Copy CRC BA782C7B
Copy OK

No errors occurred


AccurateRip summary

Track 1 accurately ripped (confidence 2) [69264981] (AR v2)
Track 2 accurately ripped (confidence 2) [3CD5CCB7] (AR v2)
Track 3 accurately ripped (confidence 2) [CCD8EB67] (AR v2)
Track 4 accurately ripped (confidence 2) [381BA6A2] (AR v2)
Track 5 accurately ripped (confidence 2) [33CC96A9] (AR v2)
Track 6 accurately ripped (confidence 2) [A0BA9B8B] (AR v2)
Track 7 accurately ripped (confidence 2) [37261326] (AR v2)
Track 8 accurately ripped (confidence 2) [4103D1FA] (AR v2)
Track 9 accurately ripped (confidence 2) [54FCDEFA] (AR v2)
Track 10 accurately ripped (confidence 2) [C3909DEB] (AR v2)
Track 11 accurately ripped (confidence 2) [0A37F1D7] (AR v2)
Track 12 accurately ripped (confidence 2) [8D22461B] (AR v2)
Track 13 accurately ripped (confidence 2) [E2F8BE38] (AR v2)
Track 14 accurately ripped (confidence 2) [9E795F42] (AR v2)
Track 15 accurately ripped (confidence 2) [E94DA86F] (AR v2)
Track 16 accurately ripped (confidence 2) [AAA975B4] (AR v2)
Track 17 accurately ripped (confidence 2) [E06C8F49] (AR v2)

All tracks accurately ripped

End of status report

==== Log checksum F1D9F9C01591ABBD057E9046666AC4BACFC224D5A8B5D3DE71BBA91D11308BBF ====

CD 3:
01. Portati Via
02. Grande Amore
03. Mina Adriano Celetano Brivido Felino
04. Certe Cose Si Fanno
05. Vai E Vai E Vai
06. Oggi Sono Io
07. Je So' Pazzo
08. Puro Teatro
09. Meglio Così
10. Succhiando l'Uva
11. Se Finisse Tutto Così
12. La Lontananza
13. Io Ho Te
14. Resta Lì
15. Si, l'Amor
16. Rotola La Vita
17. Stay with Me (Stay)

Exact Audio Copy V1.0 beta 3 from 29. August 2011

EAC extraction logfile from 27. May 2012, 11:45

Various Artists / The Platinum Collection, Vol. 2 (Disc 3)

Used drive : ATAPI DVD A DH16A6S Adapter: 3 ID: 2

Read mode : Secure
Utilize accurate stream : Yes
Defeat audio cache : Yes
Make use of C2 pointers : No

Read offset correction : 6
Overread into Lead-In and Lead-Out : No
Fill up missing offset samples with silence : Yes
Delete leading and trailing silent blocks : No
Null samples used in CRC calculations : Yes
Used interface : Installed external ASPI interface

Used output format : User Defined Encoder
Selected bitrate : 896 kBit/s
Quality : High
Add ID3 tag : No
Command line compressor : C:\Program Files (x86)\Exact Audio Copy\FLAC\FLAC.EXE
Additional command line options : -T "artist=%artist%" -T "title=%title%" -T "album=%albumtitle%" -T "date=%year%" -T "tracknumber=%tracknr%" -T "genre=%genre%" -8 %source%


TOC of the extracted CD

Track | Start | Length | Start sector | End sector
––––––––––––––––––––––––––––-
1 | 0:00.00 | 3:54.60 | 0 | 17609
2 | 3:54.60 | 4:34.42 | 17610 | 38201
3 | 8:29.27 | 3:41.63 | 38202 | 54839
4 | 12:11.15 | 3:59.10 | 54840 | 72774
5 | 16:10.25 | 4:16.17 | 72775 | 91991
6 | 20:26.42 | 3:59.20 | 91992 | 109936
7 | 24:25.62 | 3:39.13 | 109937 | 126374
8 | 28:05.00 | 4:01.15 | 126375 | 144464
9 | 32:06.15 | 5:13.42 | 144465 | 167981
10 | 37:19.57 | 4:09.08 | 167982 | 186664
11 | 41:28.65 | 4:30.12 | 186665 | 206926
12 | 45:59.02 | 6:12.50 | 206927 | 234876
13 | 52:11.52 | 4:49.70 | 234877 | 256621
14 | 57:01.47 | 4:43.08 | 256622 | 277854
15 | 61:44.55 | 4:00.27 | 277855 | 295881
16 | 65:45.07 | 4:44.63 | 295882 | 317244
17 | 70:29.70 | 4:13.07 | 317245 | 336226


Range status and errors

Selected range

Filename F:\EAC - CD\Various Artists - The Platinum Collection, Vol. 2 (Disc 3).wav

Peak level 99.9 %
Extraction speed 3.5 X
Range quality 99.9 %
Copy CRC 83EE9977
Copy OK

No errors occurred


AccurateRip summary

Track 1 accurately ripped (confidence 2) [D3775ED6] (AR v2)
Track 2 accurately ripped (confidence 2) [D90430D9] (AR v2)
Track 3 accurately ripped (confidence 2) [6E4D5F7A] (AR v2)
Track 4 accurately ripped (confidence 2) [53172795] (AR v2)
Track 5 accurately ripped (confidence 2) [F3256B83] (AR v2)
Track 6 accurately ripped (confidence 2) [D328A4D5] (AR v2)
Track 7 accurately ripped (confidence 2) [AA95996E] (AR v2)
Track 8 accurately ripped (confidence 2) [5B76EEDD] (AR v2)
Track 9 accurately ripped (confidence 2) [109B4E5A] (AR v2)
Track 10 accurately ripped (confidence 2) [C2E58B25] (AR v2)
Track 11 accurately ripped (confidence 2) [B05F4A16] (AR v2)
Track 12 accurately ripped (confidence 2) [F7D3D626] (AR v2)
Track 13 accurately ripped (confidence 2) [C842C661] (AR v2)
Track 14 accurately ripped (confidence 2) [7B3997DD] (AR v2)
Track 15 accurately ripped (confidence 2) [955EA2D3] (AR v2)
Track 16 accurately ripped (confidence 2) [3E2B61D0] (AR v2)
Track 17 accurately ripped (confidence 2) [BB02B9B6] (AR v2)

All tracks accurately ripped

End of status report

==== Log checksum F330E27ECC12F27887BDF91521D917A297B5FF160051537472885D38045F054A ====

Thanks to the Original ripper (unknown)!

Download: