Subcategories

Mindi Abair And The Boneshakers - No Good Deed (2019)

Posted By: tiburon
Mindi Abair And The Boneshakers - No Good Deed (2019)

Mindi Abair And The Boneshakers - No Good Deed (2019)
EAC 1.3 | FLAC Image level 6 | Cue+Log | Full Scans 600dpi | 413MB + 5% Recovery
MP3 CBR 320 Kbps | 107MB + 5% Recovery
Genre: Blues

Rock, jazz and blues influences stand up and roar on this gritty, electrifying and soulfully seductive collection of commanding original material and sublimely retooled covers. Mindi Abair and the Boneshakers live, eat and breathe music as a collective — it’s their oxygen. Add to that a balanced mix of diverse musical backgrounds, big personalities and the bond of mutual respect coupled with friendship, and what transpires in the recording studio is sonic magic. It’s that kind of chemistry that the Los Angeles-based band has righteously captured and parlayed into their third studio album, No Good Deed, which is set for release on June 28 on Abair’s Pretty Good For A Girl Records.
Track List
01. Seven Day Fool 4:00
02. No Good Deed Goes Unpunished 5:18
03. You Better Run 2:53
04. Sweetest Lies 5:23
05. Good Day For The Blues 6:14
06. Mess I’m In 4:10
07. Bad News 4:45
08. Movin’ On 4:06
09. Who’s Gonna Save My Soul? 5:56
10. Baby Get It On 3:56

musicians
Vocals, Soprano Saxophone, Alto Saxophone, Tenor Saxophone – Mindi Abair
Tenor Saxophone – Paulie Cerra (tracks: 10)
Trombone – Nick Lane (tracks: 7)
Trumpet, Trombone – Lee Thornburg (tracks: 10)
Vocals, Drums, Percussion – Third Richardson
Vocals, Guitar – Randy Jacobs
Vocals, Organ, Piano, Synthesizer – Rodney Lee

Produced by Kevin Shirley


Exact Audio Copy V1.3 from 2. September 2016

Отчёт EAC об извлечении, выполненном 14. августа 2019, 13:23

Mindi Abair And The Boneshakers / No Good Deed

Дисковод: ATAPI iHAS124 F Adapter: 1 ID: 2

Режим чтения : Достоверность
Использование точного потока : Да
Отключение кэша аудио : Да
Использование указателей C2 : Нет

Коррекция смещения при чтении : 6
Способность читать области Lead-in и Lead-out : Нет
Заполнение пропущенных сэмплов тишиной : Да
Удаление блоков с тишиной в начале и конце : Нет
При вычислениях CRC использовались нулевые сэмплы : Да
Интерфейс : Встроенный Win32-интерфейс для Win NT/2000

Выходной формат : Пользовательский кодировщик
Выбранный битрейт : 768 kBit/s
Качество : Высокий
Добавление ID3-тега : Нет
Утилита сжатия : C:\Program Files (x86)\Exact Audio Copy\FLAC\FLAC.EXE
Дополнительные параметры : -6 -V -T "ARTIST=%artist%" -T "TITLE=%title%" -T "ALBUM=%albumtitle%" -T "DATE=%year%" -T "TRACKNUMBER=%tracknr%" -T "GENRE=%genre%" -T "COMMENT=%comment%" -T "BAND=%albuminterpret%" -T "ALBUMARTIST=%albuminterpret%" -T "COMPOSER=%composer%" %haslyrics%–tag-from-file=LYRICS="%lyricsfile%"%haslyrics% -T "DISCNUMBER=%cdnumber%" -T "TOTALDISCS=%totalcds%" -T "TOTALTRACKS=%numtracks%" %hascover%–picture="%coverfile%"%hascover% %source% -o %dest%


TOC извлечённого CD

Трек | Старт | Длительность | Начальный сектор | Конечный сектор
––––––––––––––––––––––––––––––––––-
1 | 0:00.00 | 4:00.60 | 0 | 18059
2 | 4:00.60 | 5:18.67 | 18060 | 41976
3 | 9:19.52 | 2:53.29 | 41977 | 54980
4 | 12:13.06 | 5:23.48 | 54981 | 79253
5 | 17:36.54 | 6:14.47 | 79254 | 107350
6 | 23:51.26 | 4:10.33 | 107351 | 126133
7 | 28:01.59 | 4:45.42 | 126134 | 147550
8 | 32:47.26 | 4:06.54 | 147551 | 166054
9 | 36:54.05 | 5:56.02 | 166055 | 192756
10 | 42:50.07 | 3:56.41 | 192757 | 210497


Характеристики диапазона извлечения и сообщения об ошибках

Выбранный диапазон

Имя файла K:\My Uploads-14\Mindi Abair And The Boneshakers - No Good Deed 2019 46'48''\Mindi Abair And The Boneshakers - No Good Deed.wav

Пиковый уровень 100.0 %
Скорость извлечения 6.2 X
Качество диапазона 100.0 %
CRC теста CEC2A2ED
CRC копии CEC2A2ED
Копирование… OK

Ошибок не произошло

Конец отчёта

–– CUETools DB Plugin V2.1.6

[CTDB TOCID: q2KuGE2HF4RKDBbvQ8w9wBA.Owo-] found
Submit result: q2KuGE2HF4RKDBbvQ8w9wBA.Owo- has been confirmed
Track | CTDB Status
1 | (9/9) Accurately ripped
2 | (9/9) Accurately ripped
3 | (9/9) Accurately ripped
4 | (9/9) Accurately ripped
5 | (9/9) Accurately ripped
6 | (9/9) Accurately ripped
7 | (9/9) Accurately ripped
8 | (9/9) Accurately ripped
9 | (9/9) Accurately ripped
10 | (9/9) Accurately ripped


==== Контрольная сумма отчёта 108EDA86D730CFC897EE1A637C15778D74155CCF241E5754B92F8464BB71E095 ====

Mindi Abair And The Boneshakers - No Good Deed (2019)
Mindi Abair And The Boneshakers - No Good Deed (2019)


Thanks to the original ripper