Miles Davis & Quincy Jones - Live At Montreux (1993) {Warner Bros.}

Posted By: TestTickles
Miles Davis & Quincy Jones - Live At Montreux (1993) {Warner Bros.}

Miles Davis & Quincy Jones - Live At Montreux (1993) {Warner Bros.}
EAC Rip | FLAC with CUE and log | scans | 356 mb
MP3 CBR 320kbps | RAR | 145 mb
Genre: jazz, big band

Live At Montreux is a 1993 live album by Miles Davis & Quincy Jones. This was recorded at the 25th anniversary of The Montreux Jazz Festival on 8 July, 1991, two months before Davis' passing. This was released in the U.S. by Warner Bros. Records.

Miles Davis & Quincy Jones - Live At Montreux (1993) {Warner Bros.}

01. Introduction By Claude Nobs And Quincy Jones
02. Boplicity
03. Introduction To "Miles Ahead" Medley
04. Springsville
05. Maids Of Cadiz
06. The Duke
07. My Ship
08. Miles Ahead
09. Blues For Pablo
10. Introduction To "Porgy And Bess" Medley
11. Orgone
12. Gone, Gone, Gone
13. Summertime
14. Here Come De Honey Man
15. The Pan Piper
16. Solea
–-
Miles Davis-trumpet
Quincy Jones-conductor

SOLOISTS:
Kenny Garrett-alto saxophone
Wallace Roney-trumpet/flugelhorn

THE GIL EVANS ORCHESTRA:
Lew Soloff-trumpet
Miles Evans-trumpet
Tom Malone-trombone
Alex Foster-soprano & alto saxophones, flute
George Adams-tenor saxophone, flute
Gil Goldstein-keyboards
Delmar Brown-keyboards
Kennwood Dennard-drums, percussion

THE GEORGE GRUNTZ CONCERT JAZZ BAND
Marvin Stamm-trumpet, fluegelhorn
John D'earth-trumpet, fluegelhorn
Jack Walrath-trumpet, fluegelhorn
John Clark-French horn
Tom Varner-French horn
Dave Bargeron-trombone, Euphonium
Earl McIntyre-trombone, Euphonium
Dave Taylor-bass trombone
Howard Johnson-baritone saxophone, tuba
Sal Giorgianni-alto saxophone
Bob Malach-tenor saxophone, flute, clarinet
Larry Schneider-tenor saxophone, flute, clarinet, oboe
Jerry Bergonzi-tenor saxophone
George Gruntz-piano
Mike Richmond-bass
John Riley-drums, percussion
Wallace Roney-trumpet/flugelhorn

ADDITIONAL MUSICIANS WITH THE GEORGE GRUNTZ CONCERT JAZZ BAND:
Manfred Schoof-trumpet/fluegelhorn
Ack Van Royen-trumpet/fluegelhorn
Alex Brofsky-French horn
Roland Dahinder-trombone
Claudio Pontiggia-French horn
Anne O'Brien-flute
Julian Cawdry-flute/piccolo/alto flute
Hanspeter Frehner-flute/piccolo/alto flute
Michel Weber-clarinet
Christian Vavillet-bass clarinet/baritone saxophone
Tilman Zahn-oboe
Dave Seghezzo-oboe
Xavier Duss-oboe
Judith Wenziker-oboe
Christian Rabe-bassoon
Reiner Erb-bassoon
Xenia Schindler-harp
Conrad Herwig-trombone
Roger Rosenberg-bass clarinet/baritone saxophone

ADDITIONAL PARTICIPATING MUSICIANS:
Benny Bailey-trumpet, flugelhorn
Carles Benavent-bass/electric bass on "The Pan Piper" and "Solea"
Grady Tate-drums

Recorded live at the 25th anniversary of The Montreux Jazz Festival, Montreux, Switzerland on 8 July, 1991
Live sound recording by Dave Richards and Justin Shirley-Smith on-site at Mountain Studios

Mastered by Bernie Grundman at Bernie Grundman Mastering, Hollywood, CA
–-
MILES DAVIS & QUINCY JONES LIVE AT MONTREUX finds the legendary trumpeter come full circle, returning at the end of his career to those musical highlights which set his sound and style in stone for generations of listeners. Drawing upon his collaborations with the innovative arranger Gil Evans, LIVE AT MONTREUX reprises some of Miles greatest moments from THE BIRTH OF THE COOL, MILES AHEAD, PORGY AND BESS and SKETCHES OF SPAIN. The fact that Miles Davis, for some 40 years, steadfastly refused to offer his fans a backwards glance in the face of new and more interesting musical challenges, only adds to the poignancy of this July 8, 1991 event. It's as if he knew that, in a spiritual sense, he had to face this music one last time. Clearly when he hit the stage at Montreux, Miles Davis wasn't the instrumentalist he once was, but his musicianship had grown more profound with every passing year. Yet once Miles gets his sea legs under him, he imbues each passage with his classic logic, intuition and sense of romance. On the more taxing passages, his stunt doubles–alto saxophonist Kenny Garrett and trumpeter Wallace Roney–play with great passion and poetic restraint. Jones and Gil Goldstein's adaptation of the Evans charts are brassier and more sprawling than the originals. Still, it's Evans originals such as "Orgone," "Blues For Pablo" and "Solea" that elicit the most powerful performances. And at the end, when confronted with the incantory, guitar-like grandeur of "Solea," Miles rises one last time to the challenge of these ancient themes, going out like a champion…with his boots on.

EAC extraction logfile from 22. July 2006, 13:12 for CD
Miles Davis & Quincy Jones / Live At Montreux

Used drive : LITE-ON DVDRW SOHW-1633S Adapter: 0 ID: 0
Read mode : Secure with NO C2, accurate stream, disable cache
Read offset correction : 12
Overread into Lead-In and Lead-Out : No

Used output format : Internal WAV Routines
44.100 Hz; 16 Bit; Stereo

Other options :
Fill up missing offset samples with silence : Yes
Delete leading and trailing silent blocks : No
Installed external ASPI interface


Track 1
Filename D:\FLAC\Miles Davis & Quincy Jones - Live At Montreux (1993) [FLAC] {Warner Bros.}\01 - Introduction By Claude Nobs And Quincy Jones.wav

Pre-gap length 0:00:02.42

Peak level 32.5 %
Track quality 100.0 %
Test CRC 8950E02F
Copy CRC 8950E02F
Copy OK

Track 2
Filename D:\FLAC\Miles Davis & Quincy Jones - Live At Montreux (1993) [FLAC] {Warner Bros.}\02 - Boplicity.wav

Pre-gap length 0:00:00.02

Peak level 71.9 %
Track quality 100.0 %
Test CRC FB981CAD
Copy CRC FB981CAD
Copy OK

Track 3
Filename D:\FLAC\Miles Davis & Quincy Jones - Live At Montreux (1993) [FLAC] {Warner Bros.}\03 - Introduction To ''Miles Ahead'' Medley.wav

Pre-gap length 0:00:00.02

Peak level 14.3 %
Track quality 100.0 %
Test CRC 817235AE
Copy CRC 817235AE
Copy OK

Track 4
Filename D:\FLAC\Miles Davis & Quincy Jones - Live At Montreux (1993) [FLAC] {Warner Bros.}\04 - Springsville.wav

Pre-gap length 0:00:00.02

Peak level 100.0 %
Track quality 100.0 %
Test CRC 9B832FF4
Copy CRC 9B832FF4
Copy OK

Track 5
Filename D:\FLAC\Miles Davis & Quincy Jones - Live At Montreux (1993) [FLAC] {Warner Bros.}\05 - Maids Of Cadiz.wav

Pre-gap length 0:00:00.02

Peak level 100.0 %
Track quality 100.0 %
Test CRC FEC4E509
Copy CRC FEC4E509
Copy OK

Track 6
Filename D:\FLAC\Miles Davis & Quincy Jones - Live At Montreux (1993) [FLAC] {Warner Bros.}\06 - The Duke.wav

Pre-gap length 0:00:00.02

Peak level 100.0 %
Track quality 100.0 %
Test CRC 5518D25F
Copy CRC 5518D25F
Copy OK

Track 7
Filename D:\FLAC\Miles Davis & Quincy Jones - Live At Montreux (1993) [FLAC] {Warner Bros.}\07 - My Ship.wav

Pre-gap length 0:00:00.02

Peak level 93.4 %
Track quality 100.0 %
Test CRC 16ABB750
Copy CRC 16ABB750
Copy OK

Track 8
Filename D:\FLAC\Miles Davis & Quincy Jones - Live At Montreux (1993) [FLAC] {Warner Bros.}\08 - Miles Ahead.wav

Pre-gap length 0:00:00.02

Peak level 95.3 %
Track quality 100.0 %
Test CRC 297DDF97
Copy CRC 297DDF97
Copy OK

Track 9
Filename D:\FLAC\Miles Davis & Quincy Jones - Live At Montreux (1993) [FLAC] {Warner Bros.}\09 - Blues For Pablo.wav

Pre-gap length 0:00:00.02

Peak level 100.0 %
Track quality 100.0 %
Test CRC EFDD2AEC
Copy CRC EFDD2AEC
Copy OK

Track 10
Filename D:\FLAC\Miles Davis & Quincy Jones - Live At Montreux (1993) [FLAC] {Warner Bros.}\10 - Introduction To ''Porgy And Bess'' Medley.wav

Pre-gap length 0:00:01.20

Peak level 13.2 %
Track quality 100.0 %
Test CRC 8AA9CCAC
Copy CRC 8AA9CCAC
Copy OK

Track 11
Filename D:\FLAC\Miles Davis & Quincy Jones - Live At Montreux (1993) [FLAC] {Warner Bros.}\11 - Orgone.wav

Pre-gap length 0:00:00.02

Peak level 100.0 %
Track quality 100.0 %
Test CRC 2FFE4BD3
Copy CRC 2FFE4BD3
Copy OK

Track 12
Filename D:\FLAC\Miles Davis & Quincy Jones - Live At Montreux (1993) [FLAC] {Warner Bros.}\12 - Gone, Gone, Gone.wav

Pre-gap length 0:00:00.02

Peak level 77.0 %
Track quality 100.0 %
Test CRC 0BA36761
Copy CRC 0BA36761
Copy OK

Track 13
Filename D:\FLAC\Miles Davis & Quincy Jones - Live At Montreux (1993) [FLAC] {Warner Bros.}\13 - Summertime.wav

Pre-gap length 0:00:00.02

Peak level 97.6 %
Track quality 99.9 %
Test CRC 20EC3D2D
Copy CRC 20EC3D2D
Copy OK

Track 14
Filename D:\FLAC\Miles Davis & Quincy Jones - Live At Montreux (1993) [FLAC] {Warner Bros.}\14 - Here Come De Honey Man.wav

Pre-gap length 0:00:00.02

Peak level 100.0 %
Track quality 100.0 %
Test CRC 8B1FDAE2
Copy CRC 8B1FDAE2
Copy OK

Track 15
Filename D:\FLAC\Miles Davis & Quincy Jones - Live At Montreux (1993) [FLAC] {Warner Bros.}\15 - The Pan Piper.wav

Pre-gap length 0:00:00.02

Peak level 16.9 %
Track quality 100.0 %
Test CRC A5053199
Copy CRC A5053199
Copy OK

Track 16
Filename D:\FLAC\Miles Davis & Quincy Jones - Live At Montreux (1993) [FLAC] {Warner Bros.}\16 - Solea.wav

Pre-gap length 0:00:00.02

Peak level 100.0 %
Track quality 100.0 %
Test CRC 3436C395
Copy CRC 3436C395
Copy OK

No errors occured


End of status report


Miles Davis & Quincy Jones - Live At Montreux (1993) {Warner Bros.}


Check out other titles in my Avaxhome blog