Subcategories

Mokuto - Dressed Like A Horse (2009)

Posted By: v3122
Mokuto - Dressed Like A Horse (2009)

Mokuto - Dressed Like A Horse (2009)
EAC | Flac(Image) + Cue + Log & MP3 CBR 320Kbps
Ninth World Music, NWM 040CD | ~ 308 or 135 Mb | Artwork -> 59 Mb
Free Jazz, Contemporary Jazz, Modern Creative

Madness and esthetics, humor and beauty, seldom go together well in music, often the one goes at the expense of the other, but not so with this band. Their music is beyond description. There are laughs and crazy vocalizations, sometimes chattering of musical instruments like monkeys in trees, birds in the jungle, maybe pigs, possibly horses, sometimes incomprehensible and a seemingly pointless scattering of notes that never really evolve into phrases. The band, Mokuto, consists of three great Danish musicians, Lotte Anker on saxophone, Peter Ole Jørgensen on drums and Peter Friis Nielsen on bass, occasionally performing as a quartet, and here, as on their previous release in the company of trumpet-player Herb Robertson. The astonishing fact of this album, is that out of the absurdity of it all, out of the weirdness and otherworldliness, a sensitive beauty emerges, almost organically, naturally, … and while the lead instruments are responsible for most of that fragile beauty, it is Nielsen's bass that creates the most distinct sound, creating little percolating sounds on his bass, giving it a solid backbone and drive without falling into any fixed rhythmic pattern. And the same holds true for Jørgensen's percussion: it's crisp and fresh and unpredictable, it emphasizes and accentuates and creates depth, and it drives the music forward, yet without there being any distinct beat. Very unusual and very rewarding beautiful music, for those with open ears and open minds.
Mokuto - Dressed Like A Horse (2009):

Mokuto - Dressed Like A Horse (2009)

Tracklist:

01 - Dressed Like A Horse
02 - Brother Nest
03 - Top Gentle Jester
04 - In Fine Liner Steps
05 - Dead Red
06 - Lone Krater

Herb Robertson - trumpets
Lotte Anker - saxophones
Peter Friis Nielsen - bass
Peter Ole Jørgensen - percussion & homebuild instruments


Exact Audio Copy V1.0 beta 2 from 29. April 2011

EAC extraction logfile from 12. July 2011, 14:26

Mokuto / Dressed Like A Horse

Used drive : Optiarc DVD RW AD-7240S Adapter: 2 ID: 0

Read mode : Secure
Utilize accurate stream : Yes
Defeat audio cache : Yes
Make use of C2 pointers : No

Read offset correction : 48
Overread into Lead-In and Lead-Out : No
Fill up missing offset samples with silence : Yes
Delete leading and trailing silent blocks : No
Null samples used in CRC calculations : Yes
Used interface : Native Win32 interface for Win NT & 2000

Used output format : User Defined Encoder
Selected bitrate : 768 kBit/s
Quality : High
Add ID3 tag : No
Command line compressor : C:\Program Files\Exact Audio Copy\FLAC\FLAC.EXE
Additional command line options : -6 -V -T "ARTIST=%artist%" -T "TITLE=%title%" -T "ALBUM=%albumtitle%" -T "DATE=%year%" -T "TRACKNUMBER=%tracknr%" -T "GENRE=%genre%" -T "COMMENT=%comment%" -T "BAND=%albuminterpret%" -T "COMPOSER=%composer%" %haslyrics%–ta


TOC of the extracted CD

Track | Start | Length | Start sector | End sector
––––––––––––––––––––––––––––-
1 | 0:00.00 | 9:35.67 | 0 | 43191
2 | 9:35.67 | 6:49.41 | 43192 | 73907
3 | 16:25.33 | 5:31.23 | 73908 | 98755
4 | 21:56.56 | 6:27.71 | 98756 | 127851
5 | 28:24.52 | 9:24.51 | 127852 | 170202
6 | 37:49.28 | 19:24.39 | 170203 | 257541


Range status and errors

Selected range

Filename C:\Documents and Settings\User\Мои документы\Mokuto - Dressed Like A Horse (2009)\Mokuto - Dressed Like A Horse.wav

Peak level 99.9 %
Extraction speed 3.3 X
Range quality 99.9 %
Test CRC 05F58A6F
Copy CRC 05F58A6F
Copy OK

No errors occurred


AccurateRip summary

Track 1 accurately ripped (confidence 1) [C105276E] (AR v1)
Track 2 accurately ripped (confidence 1) [69FD6AA3] (AR v1)
Track 3 accurately ripped (confidence 1) [5DC82532] (AR v1)
Track 4 accurately ripped (confidence 1) [C66618FC] (AR v1)
Track 5 accurately ripped (confidence 1) [12F81D32] (AR v1)
Track 6 accurately ripped (confidence 1) [857F2551] (AR v1)

All tracks accurately ripped

End of status report

==== Log checksum CA9BA3C902CCF09EC8289E8B815F56DABA050D3D8DF20F1C3B2FAA4B4814A0E0 ====


[CUETools log; Date: 01.02.2020 11:57:13; Version: 2.1.6]
[CTDB TOCID: .TBfHgPVmWvNCPnLZTHzB5KVgnE-] found.
Track | CTDB Status
1 | (1/1) Accurately ripped
2 | (1/1) Accurately ripped
3 | (1/1) Accurately ripped
4 | (1/1) Accurately ripped
5 | (1/1) Accurately ripped
6 | (1/1) Accurately ripped
[AccurateRip ID: 000bc57d-003f9305-540d6906] found.
Track [ CRC | V2 ] Status
01 [c105276e|94d10e91] (1+0/1) Accurately ripped
02 [69fd6aa3|9959d941] (1+0/1) Accurately ripped
03 [5dc82532|f70ba6f8] (1+0/1) Accurately ripped
04 [c66618fc|5f815b0c] (1+0/1) Accurately ripped
05 [12f81d32|d8c07315] (1+0/1) Accurately ripped
06 [857f2551|9fd35024] (1+0/1) Accurately ripped

Track Peak [ CRC32 ] [W/O NULL] [ LOG ]
– 99,9 [05F58A6F] [A168E650] CRC32
01 99,9 [397E2433] [602A4D82]
02 99,9 [72C6868A] [0C164AD7]
03 99,9 [C4F67DCF] [260E8696]
04 99,9 [11B95CE3] [669C031A]
05 99,9 [7AF24B11] [D2254A79]
06 99,9 [67A41C10] [75DB0D39]


Mokuto - Dressed Like A Horse (2009)

All thanks go to gssmg7

Herb Robertson in my Blog

Download Mokuto - Dressed Like A Horse (2009):