Subcategories

Mokuto - Message For The Errand Boy (2006)

Posted By: v3122
Mokuto - Message For The Errand Boy (2006)

Mokuto - Message For The Errand Boy (2006)
EAC | Flac(Image) + Cue + Log & MP3 CBR 320Kbps
Ninth World Music, NWM 033CD | ~ 288 or 127 Mb | Artwork -> 45 Mb
Free Jazz, Modern Creative

~ Recorded and Mixed at Ninth World Studios July 2003 & December 2005 ~

Three of Denmarks finest improvisers in collaboration with New York trumpeter Herb Robertson, Message For The Errand Boy was recorded in July 2003 after the band had played a series of concerts during the Copenhagen Jazz Festival. The recordings present five tracks of 3 to 8 minutes in length, and the 26 minute "Captain Voms Great Adventure," which features adventurous playing and subtle interaction in a free structure that give the players a great deal of room to express themselves. Saxophonist Lotte Anker has recorded Tim Berne, Marilyn Crispell, Paul Nilssen-Love, etc. Herb Robertson is a versatile player who has worked with Tim Berne, Bill Frisell, Paul Motian, etc. and is found in both NY and European organizations. Nielsen and Jorgensen are often associated with trombonist Johannes Bauer and Peter Brötzmann.
Mokuto - Message For The Errand Boy (2006):

Mokuto - Message For The Errand Boy (2006)

Tracklist:

01 - Freebooting In Heavy Sea
02 - God Bless Mokuto And All Who Sail With It
03 - Message For The Errand Boy
04 - Captain Voms Great Adventure
05 - Waiting For The Wind Lost In The Coral Sea

Herb Robertson - trumpet, cornet, mutes, slide trumpet
Lotte Anker - soprano, alto, tenor saxophones
Peter Friis Nielsen - bass
Peter Ole Jørgensen - drums, percussion

Exact Audio Copy V1.0 beta 2 from 29. April 2011

EAC extraction logfile from 12. July 2011, 14:59

Mokuto / Message For The Errand Boy

Used drive : Optiarc DVD RW AD-7240S Adapter: 2 ID: 0

Read mode : Secure
Utilize accurate stream : Yes
Defeat audio cache : Yes
Make use of C2 pointers : No

Read offset correction : 48
Overread into Lead-In and Lead-Out : No
Fill up missing offset samples with silence : Yes
Delete leading and trailing silent blocks : No
Null samples used in CRC calculations : Yes
Used interface : Native Win32 interface for Win NT & 2000

Used output format : User Defined Encoder
Selected bitrate : 768 kBit/s
Quality : High
Add ID3 tag : No
Command line compressor : C:\Program Files\Exact Audio Copy\FLAC\FLAC.EXE
Additional command line options : -6 -V -T "ARTIST=%artist%" -T "TITLE=%title%" -T "ALBUM=%albumtitle%" -T "DATE=%year%" -T "TRACKNUMBER=%tracknr%" -T "GENRE=%genre%" -T "COMMENT=%comment%" -T "BAND=%albuminterpret%" -T "COMPOSER=%composer%" %haslyrics%–ta


TOC of the extracted CD

Track | Start | Length | Start sector | End sector
––––––––––––––––––––––––––––-
1 | 0:00.00 | 3:39.61 | 0 | 16485
2 | 3:39.61 | 8:41.06 | 16486 | 55566
3 | 12:20.67 | 8:39.71 | 55567 | 94562
4 | 21:00.63 | 26:22.41 | 94563 | 213253
5 | 47:23.29 | 6:21.43 | 213254 | 241871


Range status and errors

Selected range

Filename C:\Documents and Settings\User\Мои документы\Mokuto - Message For The Errand Boy (2006)\Mokuto - Message For The Errand Boy.wav

Peak level 99.9 %
Extraction speed 3.9 X
Range quality 100.0 %
Test CRC D94485CC
Copy CRC D94485CC
Copy OK

No errors occurred


AccurateRip summary

Track 1 not present in database
Track 2 not present in database
Track 3 not present in database
Track 4 not present in database
Track 5 not present in database

None of the tracks are present in the AccurateRip database

End of status report

==== Log checksum BB3CC2058A72C20849DB317A83B5FD4902AF7AAAB024B1E807E6A1C82BA0DEC4 ====


[CUETools log; Date: 29.02.2020 10:25:24; Version: 2.1.4]
[AccurateRip ID: 00097cae-002f3b84-320c9805] disk not present in database.

Track Peak [ CRC32 ] [W/O NULL] [ LOG ]
– 99,9 [D94485CC] [F129CF8D] CRC32
01 99,9 [79553DB0] [3643BE9F]
02 99,9 [696F2C97] [61B37A82]
03 99,9 [F00D21FD] [E9B69282]
04 99,9 [CF8F18F3] [566DA5C7]
05 99,9 [621E54C9] [08A20BC4]


Mokuto - Message For The Errand Boy (2006)

All thanks go to gssmg7

Mokuto in my Blog

Download Mokuto - Message For The Errand Boy (2006):