Tags
Language
Tags

Daniel Barenboim, Berliner Philharmoniker - Mozart: Don Giovanni (1992)

Posted By: Vilboa
Daniel Barenboim, Berliner Philharmoniker - Mozart: Don Giovanni (1992)

Daniel Barenboim, Berliner Philharmoniker - Mozart: Don Giovanni (1992)
EAC (flac, image, cue, log) | TT: 2h 54 | Covers | 695 Mb
Classical | Erato | # 2292-45588-2 | Rec: 1991

For some reason, Daniel Barenboim's recordings of the Mozart-Da Ponte masterpieces have been overlooked. All three have splendid casts - and among them, this may be the least spectacular, but it is nonetheless a wonderful performance. Joan Rodgers has a gorgeous voice, and sings Zerlina with radiant and womanly warmth - no voce infantile here, thank the gods. It's a pity she hasn't recorded more. She is, fortunately, in Barenboim's two other Mozart-Da Ponte operas, singing her heart out as Susanna and Despina. Furlanetto has an interesting take on the role of the Don. He usually sings Leprello, but here he sings the part of Don Giovanni with a rather unique interpretation. He plays the Don as somewhat of a fool, with more of a comic slant than I have ever heard. But humor was part of Mozart's original intention, and the Don does have his roots in street theater, so in this case a buffo Don works. Tomlinson as Leporello is more of the Don's straight man, and there seems to be a bit of role reversal going on here between the clownish Don and his more dignified servant. Tomlinson's voice can be, I think, rather boring - a kind of voice-in-a-box, like Samuel Ramey. Good, strong, accurate, but not much drama or artfulness. Ewe Heilmann's ravishingly beautiful Mozartian tenor voice adds a welcome dimension of eros to the role of the too-often bland and wimpy Don Ottavio. Waltraud Meier's Donna Elvira, though occassionally a bit on the shrill side, and Leila Cuberli's Donna Anna are both rich, full-bodied, exciting and very womanly. Barenboim seems to have a talent for drawing out highly passionate responses from women. Add Barenboim's performance to this more exotic list of Don Giovannis and you'll have quite a variety of interpretations from highly gifted artists. Some of Barenboim's opera recordings are outstanding for their dramatic content, the tightness of the performance, and his excellent taste in singers. (Amazon)

Cast:
Don Giovanni - Ferruccio Furlanetto
Il Commendatore - Matti Salminen
Donna Anna - Lella Cuberli
Don Ottavio Uwe Heilmann
Donna Elvira - Waltraud Meier
Leporello - John Tomlinson
Masetto - Michele Pertusi
Zerlina - Joan Rodgers
RIAS Kammerchor
Berliner Philharmoniker
Conductor - Daniel Barenboim

Track List:
CD1
01. Ouverture
02 Atto Primo. Introduzione: Notte e giorne faticar (Leporello, Donna Anna, Don Giovanni, Il Commendatore)
03 Recitativo: Leporello, ove sei? (Don Giovanni, Leporello)
04 Recitativo: Ah! del padre in periglio! (Donna Anna, Don Ottavio)
05 Recitativo accompagnato: Ma qual mai s'offre (Donna Anna, Don Ottavio)
06 Duetto: Fuggi, crudele, fuggi! (Donna Anna, Don Ottavio)
07 Recitativo: Orsù, spicciati presto (Don Giovanni, Leporello)
08 Aria: Ah! chi mi dice mai (Donna Elvira, Don Giovanni, Leporello)
09 Recitativo: Chi è là? (Donna Elvira, Don Giovanni, Leporello)
10 Aria: Madamina, il catalogo è questo (Leporello)
11 Recitativo: In questa forma (Donna Elvira, Coro)
12 Coro: Giovinette che fate all' amore (Zerlina, Masetto, Coro)
13 Recitativo: Manco male, è partita (Don Giovanni, Leporello, Zerlina, Masetto)
14 Aria: Ho capito, signor, si! (Masetto)
15 Recitativo: Alfin siamo liberati (Don Giovanni, Zerlina)
16 Duettino: Là ci darem la mano (Don Giovanni, Zerlina)
17 Recitativo: Fermati, scellerato! (Donna Elvira, Zerlina, Don Giovanni)
18 Aria: Ah, fuggi il traditor (Donna Elvira)
19 Recitativo: Mi par ch'oggi il demonio si diverta (Don Giovanni, Don Ottavio, Donna Anna)
20 Quartetto: Non ti fidar, o misera (Donna Elvira, Don Ottavio, Donna Anna, Don Giovanni)
21 Recitativo: Povera sventurata!
22 Recitativo accompagnato: Don Ottavio… son morta! (Donna Anna, Don Ottavio, Don Giovanni)
23 Aria: Or sai chi l'onore (Donna Anna)
24 Recitativo: Come mai creder deggio (Don Ottavio)
25 Aria: Dalla sua pace (Don Ottavio)
CD2
01 Recitativo: Io deggio ad ogni patto (Leporello, Don Giovanni)
02 Aria: Fin ch'han dal vino (Don Giovanni)
03 Recitativo: Masetto… (Zerlina, Masetto)
04 Aria: Batti, batti, o bel Masetto (Zerlina)
05 Recitativo: Guarda un po' come sepe (Masetto, Don Giovanni, Zerlina)
06 Finale: Presto, presto, pria ch'ei venga (Masetto, Zerlina, Don Giovanni, Coro, Donna Elvira, Don Ottavio, Donna Anna, Leporello)
07 Atto Secondo. Duetto: Eh, via, buffone (Don Giovanni, Leporello)
08 Recitativo: Leporello (Don Giovanni, Leporello)
09 Terzetto: Ah, taci, ingiusto core (Donna Elvira, Leporello, Don Giovanni)
10 Recitativo: Amico, che ti par? (Don Giovanni, Leporello)
11 Recitativo: Eccomi a voi (Donna Elvira, Don Giovanni, Leporello)
12 Canzonetta: Deh, vieni alla finestra (Don Giovanni)
13 V'è gente alla finestra (Don Giovanni, Masetto)
14 Aria: Metà di voi qua vadano (Don Giovanni)
15 Recitativo: Zitto… (Don Giovanni, Masetto)
16 Recitativo: Ahi! Ahi! (Masetto, Zerlina)
17 Aria: Vedrai, carino (Zerlina)
18 Recitativo: Di molte faci il lune (Leporello, Donna Elvira)
19 Sestetto: Sola sola, in buio loco (Donna Elvira, Leporello, Don Ottavio, Zerlina, Masetto, Donna Anna)
20 Recitativo: Dunque, quello sei tu (Zerlina, Donna Elvira, Don Ottavio, Masetto)
21 Aria: Ah, pietà, signori miei! (Leporello)
22 Recitativo: Ferma, perfido! (Donna Elvira, Masetto, Zerlina, Don Ottavio)
23 Aria: Il mio tesoro intanto (Don Ottavio, Zerlina, Donna Elvira, Masetto)
CD3
01 Recitativo accompagnato: In quali eccessi, o Numi (Donna Elvira)
02 Aria: Mi tradi, quell'alma ingrata (Donna Elvira)
03 Recitativo: Ah! Ah! questa è buona! (Don Giovanni, Leporello, Il Commendatore)
04 Duetto: O statua gentilissima (Leporello, Don Giovanni, Il Commendatore)
05 Recitativo: Calmatevi, idol mio (Don Ottavio, Donna Anna)
06 Recitativo accompagnato: Crudele! (Donna Anna)
07 Rondo: Non mi dir, bell'idol mio (Donna Anna)
08 Recitativo: Ah, si segua il suo passo (Don Ottavio)
09 Finale: Già la mensa è preparata (Don Giovanni, Leporello, Il Commendatore, Donna Elvira, Zerlina, Masetto, Donna Anna, Don Ottavio)


Exact Audio Copy V1.5 from 20. February 2020

EAC extraction logfile from 27. August 2020, 20:30

Daniel Barenboim, Berliner Philharmoniker / Mozart - Don Giovanni CD1

Used drive : PIONEER BD-RW BDR-207M Adapter: 1 ID: 1

Read mode : Secure
Utilize accurate stream : Yes
Defeat audio cache : Yes
Make use of C2 pointers : No

Read offset correction : 667
Overread into Lead-In and Lead-Out : No
Fill up missing offset samples with silence : Yes
Delete leading and trailing silent blocks : No
Null samples used in CRC calculations : Yes
Used interface : Native Win32 interface for Win NT & 2000

Used output format : User Defined Encoder
Selected bitrate : 128 kBit/s
Quality : High
Add ID3 tag : No
Command line compressor : C:\Program Files\Exact Audio Copy\Flac\flac.exe
Additional command line options : -V -8 -T "Date=%year%" -T "Genre=%genre%" %source%


TOC of the extracted CD

Track | Start | Length | Start sector | End sector
––––––––––––––––––––––––––––-
1 | 0:00.00 | 6:06.02 | 0 | 27451
2 | 6:06.02 | 5:29.35 | 27452 | 52161
3 | 11:35.37 | 0:31.63 | 52162 | 54549
4 | 12:07.25 | 0:10.60 | 54550 | 55359
5 | 12:18.10 | 2:38.57 | 55360 | 67266
6 | 14:56.67 | 3:46.63 | 67267 | 84279
7 | 18:43.55 | 1:34.25 | 84280 | 91354
8 | 20:18.05 | 3:46.20 | 91355 | 108324
9 | 24:04.25 | 3:00.00 | 108325 | 121824
10 | 27:04.25 | 5:23.65 | 121825 | 146114
11 | 32:28.15 | 0:31.30 | 146115 | 148469
12 | 32:59.45 | 1:30.12 | 148470 | 155231
13 | 34:29.57 | 2:26.53 | 155232 | 166234
14 | 36:56.35 | 1:33.37 | 166235 | 173246
15 | 38:29.72 | 1:53.65 | 173247 | 181786
16 | 40:23.62 | 3:16.28 | 181787 | 196514
17 | 43:40.15 | 0:49.17 | 196515 | 200206
18 | 44:29.32 | 1:28.33 | 200207 | 206839
19 | 45:57.65 | 1:13.60 | 206840 | 212374
20 | 47:11.50 | 4:49.65 | 212375 | 234114
21 | 52:01.40 | 0:21.57 | 234115 | 235746
22 | 52:23.22 | 3:43.23 | 235747 | 252494
23 | 56:06.45 | 2:47.30 | 252495 | 265049
24 | 58:54.00 | 0:37.12 | 265050 | 267836
25 | 59:31.12 | 5:02.50 | 267837 | 290536


Range status and errors

Selected range

Filename C:\Vilboa\Mozart - Don Giovanni CD1.wav

Peak level 90.9 %
Extraction speed 2.0 X
Range quality 100.0 %
Test CRC EE5526A1
Copy CRC EE5526A1
Copy OK

No errors occurred


AccurateRip summary

Track 1 accurately ripped (confidence 8) [0A441416] (AR v2)
Track 2 accurately ripped (confidence 8) [F796D34D] (AR v2)
Track 3 accurately ripped (confidence 9) [6D644D20] (AR v2)
Track 4 accurately ripped (confidence 9) [5EDFFF50] (AR v2)
Track 5 accurately ripped (confidence 9) [18B1CDAA] (AR v2)
Track 6 accurately ripped (confidence 9) [C6FC072A] (AR v2)
Track 7 accurately ripped (confidence 9) [049CC48A] (AR v2)
Track 8 accurately ripped (confidence 9) [DB154DE3] (AR v2)
Track 9 accurately ripped (confidence 9) [6EE87E1E] (AR v2)
Track 10 accurately ripped (confidence 8) [4B0BAE91] (AR v2)
Track 11 accurately ripped (confidence 9) [ACB834C8] (AR v2)
Track 12 accurately ripped (confidence 9) [A95822D6] (AR v2)
Track 13 accurately ripped (confidence 9) [808B6D76] (AR v2)
Track 14 accurately ripped (confidence 9) [4A1954DC] (AR v2)
Track 15 accurately ripped (confidence 9) [5ABF651D] (AR v2)
Track 16 accurately ripped (confidence 9) [B9382F64] (AR v2)
Track 17 accurately ripped (confidence 9) [246084D1] (AR v2)
Track 18 accurately ripped (confidence 9) [7A7F13C6] (AR v2)
Track 19 accurately ripped (confidence 9) [A141CF2E] (AR v2)
Track 20 accurately ripped (confidence 9) [B9C3820A] (AR v2)
Track 21 accurately ripped (confidence 9) [94445DFE] (AR v2)
Track 22 accurately ripped (confidence 9) [D7B553C3] (AR v2)
Track 23 accurately ripped (confidence 9) [D0E815D0] (AR v2)
Track 24 accurately ripped (confidence 9) [59B41173] (AR v2)
Track 25 accurately ripped (confidence 9) [B9BB86D1] (AR v2)

All tracks accurately ripped

End of status report

–– CUETools DB Plugin V2.1.6

[CTDB TOCID: M.wL1GsxrCL2sPMPjcI9IA4lOBs-] found
Submit result: M.wL1GsxrCL2sPMPjcI9IA4lOBs- has been confirmed
Track | CTDB Status
1 | (21/21) Accurately ripped
2 | (21/21) Accurately ripped
3 | (21/21) Accurately ripped
4 | (21/21) Accurately ripped
5 | (21/21) Accurately ripped
6 | (21/21) Accurately ripped
7 | (21/21) Accurately ripped
8 | (21/21) Accurately ripped
9 | (21/21) Accurately ripped
10 | (21/21) Accurately ripped
11 | (21/21) Accurately ripped
12 | (21/21) Accurately ripped
13 | (21/21) Accurately ripped
14 | (21/21) Accurately ripped
15 | (21/21) Accurately ripped
16 | (21/21) Accurately ripped
17 | (21/21) Accurately ripped
18 | (21/21) Accurately ripped
19 | (21/21) Accurately ripped
20 | (21/21) Accurately ripped
21 | (21/21) Accurately ripped
22 | (21/21) Accurately ripped
23 | (21/21) Accurately ripped
24 | (21/21) Accurately ripped
25 | (21/21) Accurately ripped


==== Log checksum 0E17228B6A1951A26200FC428E2D7885AAF92936053D229A6799BC6528C3A78D ====


Exact Audio Copy V1.5 from 20. February 2020

EAC extraction logfile from 28. August 2020, 11:17

Daniel Barenboim, Berliner Philharmoniker / Mozart - Don Giovanni CD2

Used drive : PIONEER BD-RW BDR-207M Adapter: 1 ID: 1

Read mode : Secure
Utilize accurate stream : Yes
Defeat audio cache : Yes
Make use of C2 pointers : No

Read offset correction : 667
Overread into Lead-In and Lead-Out : No
Fill up missing offset samples with silence : Yes
Delete leading and trailing silent blocks : No
Null samples used in CRC calculations : Yes
Used interface : Native Win32 interface for Win NT & 2000

Used output format : User Defined Encoder
Selected bitrate : 128 kBit/s
Quality : High
Add ID3 tag : No
Command line compressor : C:\Program Files\Exact Audio Copy\Flac\flac.exe
Additional command line options : -V -8 -T "Date=%year%" -T "Genre=%genre%" %source%


TOC of the extracted CD

Track | Start | Length | Start sector | End sector
––––––––––––––––––––––––––––-
1 | 0:00.00 | 1:55.72 | 0 | 8696
2 | 1:55.72 | 1:18.68 | 8697 | 14614
3 | 3:14.65 | 1:15.52 | 14615 | 20291
4 | 4:30.42 | 3:55.45 | 20292 | 37961
5 | 8:26.12 | 0:40.05 | 37962 | 40966
6 | 9:06.17 | 19:03.55 | 40967 | 126746
7 | 28:09.72 | 0:59.10 | 126747 | 131181
8 | 29:09.07 | 1:57.53 | 131182 | 140009
9 | 31:06.60 | 5:22.10 | 140010 | 164169
10 | 36:28.70 | 0:30.35 | 164170 | 166454
11 | 36:59.30 | 1:38.25 | 166455 | 173829
12 | 38:37.55 | 2:04.47 | 173830 | 183176
13 | 40:42.27 | 1:04.18 | 183177 | 187994
14 | 41:46.45 | 2:54.17 | 187995 | 201061
15 | 44:40.62 | 0:46.33 | 201062 | 204544
16 | 45:27.20 | 1:12.17 | 204545 | 209961
17 | 46:39.37 | 3:35.10 | 209962 | 226096
18 | 50:14.47 | 0:30.48 | 226097 | 228394
19 | 50:45.20 | 7:37.00 | 228395 | 262669
20 | 58:22.20 | 0:22.35 | 262670 | 264354
21 | 58:44.55 | 1:42.02 | 264355 | 272006
22 | 60:26.57 | 0:45.13 | 272007 | 275394
23 | 61:11.70 | 4:28.15 | 275395 | 295509


Range status and errors

Selected range

Filename C:\Vilboa\Mozart - Don Giovanni CD2.wav

Peak level 90.9 %
Extraction speed 7.5 X
Range quality 100.0 %
Test CRC D84FCC86
Copy CRC D84FCC86
Copy OK

No errors occurred


AccurateRip summary

Track 1 accurately ripped (confidence 10) [72CEB6D5] (AR v2)
Track 2 accurately ripped (confidence 10) [6705D57C] (AR v2)
Track 3 accurately ripped (confidence 10) [F37BB4CC] (AR v2)
Track 4 accurately ripped (confidence 10) [AB8B4CF5] (AR v2)
Track 5 accurately ripped (confidence 10) [D857A0DB] (AR v2)
Track 6 accurately ripped (confidence 10) [2DB863D5] (AR v2)
Track 7 accurately ripped (confidence 10) [A9803F84] (AR v2)
Track 8 accurately ripped (confidence 10) [90614520] (AR v2)
Track 9 accurately ripped (confidence 10) [0FC758C8] (AR v2)
Track 10 accurately ripped (confidence 10) [EF8643CE] (AR v2)
Track 11 accurately ripped (confidence 10) [3F2C7AB4] (AR v2)
Track 12 accurately ripped (confidence 10) [EC4B3821] (AR v2)
Track 13 accurately ripped (confidence 10) [2A5EDABC] (AR v2)
Track 14 accurately ripped (confidence 10) [77A5EA44] (AR v2)
Track 15 accurately ripped (confidence 10) [E8009D29] (AR v2)
Track 16 accurately ripped (confidence 10) [7F4D6DE9] (AR v2)
Track 17 accurately ripped (confidence 10) [87D138C1] (AR v2)
Track 18 accurately ripped (confidence 10) [AD3EAB78] (AR v2)
Track 19 accurately ripped (confidence 10) [61E454BE] (AR v2)
Track 20 accurately ripped (confidence 10) [39245581] (AR v2)
Track 21 accurately ripped (confidence 10) [3D90F4FC] (AR v2)
Track 22 accurately ripped (confidence 10) [EE20D530] (AR v2)
Track 23 accurately ripped (confidence 10) [3AB830FB] (AR v2)

All tracks accurately ripped

End of status report

–– CUETools DB Plugin V2.1.6

[CTDB TOCID: 7.9xVSl2ZLlFLp.vc06x.QTxzEM-] found
Submit result: 7.9xVSl2ZLlFLp.vc06x.QTxzEM- has been confirmed
Track | CTDB Status
1 | (17/17) Accurately ripped
2 | (17/17) Accurately ripped
3 | (17/17) Accurately ripped
4 | (17/17) Accurately ripped
5 | (17/17) Accurately ripped
6 | (17/17) Accurately ripped
7 | (17/17) Accurately ripped
8 | (17/17) Accurately ripped
9 | (17/17) Accurately ripped
10 | (17/17) Accurately ripped
11 | (17/17) Accurately ripped
12 | (17/17) Accurately ripped
13 | (17/17) Accurately ripped
14 | (17/17) Accurately ripped
15 | (17/17) Accurately ripped
16 | (17/17) Accurately ripped
17 | (17/17) Accurately ripped
18 | (17/17) Accurately ripped
19 | (17/17) Accurately ripped
20 | (17/17) Accurately ripped
21 | (17/17) Accurately ripped
22 | (17/17) Accurately ripped
23 | (17/17) Accurately ripped


==== Log checksum F80BBBA320AAF100CC4FD933325BFAF0A8EAA5CE20F2617BAE7785655FB91E60 ====


Exact Audio Copy V1.5 from 20. February 2020

EAC extraction logfile from 28. August 2020, 11:33

Daniel Barenboim, Berliner Philharmoniker / Mozart - Don Giovanni CD3

Used drive : PIONEER BD-RW BDR-207M Adapter: 1 ID: 1

Read mode : Secure
Utilize accurate stream : Yes
Defeat audio cache : Yes
Make use of C2 pointers : No

Read offset correction : 667
Overread into Lead-In and Lead-Out : No
Fill up missing offset samples with silence : Yes
Delete leading and trailing silent blocks : No
Null samples used in CRC calculations : Yes
Used interface : Native Win32 interface for Win NT & 2000

Used output format : User Defined Encoder
Selected bitrate : 128 kBit/s
Quality : High
Add ID3 tag : No
Command line compressor : C:\Program Files\Exact Audio Copy\Flac\flac.exe
Additional command line options : -V -8 -T "Date=%year%" -T "Genre=%genre%" %source%


TOC of the extracted CD

Track | Start | Length | Start sector | End sector
––––––––––––––––––––––––––––-
1 | 0:00.00 | 2:18.65 | 0 | 10414
2 | 2:18.65 | 3:54.68 | 10415 | 28032
3 | 6:13.58 | 4:30.40 | 28033 | 48322
4 | 10:44.23 | 3:29.47 | 48323 | 64044
5 | 14:13.70 | 0:52.48 | 64045 | 67992
6 | 15:06.43 | 1:49.52 | 67993 | 76219
7 | 16:56.20 | 5:12.45 | 76220 | 99664
8 | 22:08.65 | 0:18.40 | 99665 | 101054
9 | 22:27.30 | 22:51.68 | 101055 | 203947


Range status and errors

Selected range

Filename C:\Vilboa\Mozart - Don Giovanni CD3.wav

Peak level 79.4 %
Extraction speed 6.5 X
Range quality 100.0 %
Test CRC 52E6AF3D
Copy CRC 52E6AF3D
Copy OK

No errors occurred


AccurateRip summary

Track 1 accurately ripped (confidence 10) [6180BC26] (AR v2)
Track 2 accurately ripped (confidence 10) [44C1C07D] (AR v2)
Track 3 accurately ripped (confidence 10) [5CFFB5C7] (AR v2)
Track 4 accurately ripped (confidence 10) [989F3B63] (AR v2)
Track 5 accurately ripped (confidence 10) [F9F54FBB] (AR v2)
Track 6 accurately ripped (confidence 10) [521E3278] (AR v2)
Track 7 accurately ripped (confidence 10) [9D58D490] (AR v2)
Track 8 accurately ripped (confidence 10) [85C76F46] (AR v2)
Track 9 accurately ripped (confidence 10) [8D429234] (AR v2)

All tracks accurately ripped

End of status report

–– CUETools DB Plugin V2.1.6

[CTDB TOCID: qc7pTjqFVo1gpVJ79xRzdAvkwpA-] found
Submit result: qc7pTjqFVo1gpVJ79xRzdAvkwpA- has been confirmed
Track | CTDB Status
1 | (17/18) Accurately ripped
2 | (18/18) Accurately ripped
3 | (18/18) Accurately ripped
4 | (18/18) Accurately ripped
5 | (18/18) Accurately ripped
6 | (18/18) Accurately ripped
7 | (18/18) Accurately ripped
8 | (18/18) Accurately ripped
9 | (18/18) Accurately ripped


==== Log checksum 6EFB6ED0A8EC449576871F59E41FCD26742CBFC7C98EC2433E7D4EFE8D39D814 ====