Tags
Language
Tags

Muse - Drones World Tour 2018 (2020) [HDTV, 720p]

Posted By: v3122
Muse - Drones World Tour 2018 (2020) [HDTV, 720p]

Muse - Drones World Tour 2018 (2020))
TS: MPEG4 (H264) 1280x720, 50fps | Dolby AC3 48000Hz, 2ch, 448kbps
Alternative Rock | 01:25:19 | ~ 8.31 Gb

The Drones World Tour was a worldwide concert tour by the English rock band Muse. Staged in support of the band's 2015 album Drones, the tour visited arenas and festivals throughout 2015 and is the tenth concert tour the band has carried out. It began on 23 May 2015 in Norwich, England at the BBC Radio 1's Big Weekend. The tour has grossed $23M from 34 shows in 2015, plus $65.5M from 64 shows in 2016.

A live video of the tour entitled Muse: Drones World Tour, was released in cinemas worldwide on 12 July 2018…

~ wiki
Muse - Drones World Tour 2018 (2020):

Tracklist:

01. Drones
02. Psycho
03. Reapers
04. Hysteria
05. Dead Inside
06. The Handler
07. Supermassive Black Hole
08. Prelude
09. Starlight
10. Madness
11. Time is Running Out
12. Uprising
13. The Globalist
14. Drones (reprise)
15. Take a Bow
16. Mercy
17. Knights of Cydonia

General
ID : 1 (0x1)
Complete name : E:\Mix\Muse - Drones World Tour 2019\Muse - Drones World Tour 2019.ts
Format : MPEG-TS
File size : 7.87 GiB
Duration : 1h 25mn
Overall bit rate mode : Variable
Overall bit rate : 13.2 Mbps

Video
ID : 6510 (0x196E)
Menu ID : 1 (0x1)
Format : AVC
Format/Info : Advanced Video Codec
Format profile : High@L4.0
Format settings, CABAC : Yes
Format settings, ReFrames : 6 frames
Codec ID : 27
Duration : 1h 25mn
Bit rate : 12.1 Mbps
Width : 1 280 pixels
Height : 720 pixels
Display aspect ratio : 16:9
Frame rate : 50.000 fps
Color space : YUV
Chroma subsampling : 4:2:0
Bit depth : 8 bits
Scan type : Progressive
Bits/(Pixel*Frame) : 0.263
Stream size : 7.22 GiB (92%)
Color primaries : BT.709
Transfer characteristics : BT.709
Matrix coefficients : BT.709

Audio
ID : 6522 (0x197A)
Menu ID : 1 (0x1)
Format : AC-3
Format/Info : Audio Coding 3
Mode extension : CM (complete main)
Format settings, Endianness : Big
Codec ID : 6
Duration : 1h 25mn
Bit rate mode : Constant
Bit rate : 448 Kbps
Channel(s) : 2 channels
Channel positions : Front: L R
Sampling rate : 48.0 KHz
Bit depth : 16 bits
Compression mode : Lossy
Stream size : 273 MiB (3%)
Language : German

Text
ID : 6530 (0x1982)-100
Menu ID : 1 (0x1)
Format : Teletext
Language : German

Menu
ID : 256 (0x100)
Menu ID : 1 (0x1)
Duration : 1h 25mn
List : 6510 (0x196E) (AVC) / 6522 (0x197A) (AC-3, German) / 6530 (0x1982) ()
Language : / German



Muse - Drones World Tour 2018 (2020) [HDTV, 720p]

Muse - Drones World Tour 2018 (2020) [HDTV, 720p]

Muse - Drones World Tour 2018 (2020) [HDTV, 720p]

Muse - Drones World Tour 2018 (2020) [HDTV, 720p]

Muse - Drones World Tour 2018 (2020) [HDTV, 720p]

All thanks go to the original releaser

Muse in my Blog

Download Muse - Drones World Tour 2018 (2020):