Tags
Language
Tags

Museo Rosenbach - Exit (2000)

Posted By: gribovar
Museo Rosenbach - Exit (2000)

Museo Rosenbach - Exit (2000)
EAC Rip | FLAC (image+.cue+log) - 295 MB | MP3 CBR 320 kbps (LAME 3.93) - 108 MB | Covers - 17 MB
Genre: Progressive Rock | RAR 3% Rec. | Label: Carisch (CL 77)

Museo Rosenbach was formed in the early '70s in Italy. In 1973 they released "Zarathustra" (about Nietzsche's superman), this album is still considered as one of the masterpieces in the world of progrock. Unfortunately, the group broke up the following year. The group re-formed in the 1990s and released the album "Exit" in 2000.
''Zarathustra'' (1973) was more or less regarded as an album created by fascists due to its extreme cover and lyrics and Museo Rosenbach disbanded after some concerts during the summer of 73' with Giancarlo Golzi continuing as a member of the Pop Rock act Matia Bazar.Fast forward some 25 years Golzi along with Alberto Moreno re-established the group with new members Andrea Biancheri on vocals, Marco Balbo on guitars, Marioluca Bariona and Sergio Cossu both on keyboards. Between December 98' and December 99' the new MR formation created the album "Exit", which was released in 2000 on Nuova Carisch, the new name of the old Disco Carisch label.
Forget about the bombastic, heavy and complex sound of the old Museo Rosenbach. "Exit" is basically a melodic Italian Rock album with a beautiful lyrical approach and occasional progressive vibes at moments, the focus though remains an atmospheric song-based style with limited yet interesting instrumental parts. New singer Biancheri has a nice, sensational voice, offering rare emotions, and the music seems to have been built around his warm vocals. Music is quite laid-back with a deep sense of melody, based on synths and guitars, following the new Art Rock trend. Some parts of the album have a good orchestral sound among the more accesible themes, while here and there the listener faces the old side of the group through some carefully-placed organ and Mellotron washes. However the sound actually never escapes the easy path of melodic and atmospheric Rock, so you shouldn't expect any kind of intricate interplays or complicated instrumental lines from "Exit".

Tracklist:
01. Exit
02. Il Terzo Occhio
03. In Equilibrio
04. Love
05. Tuareg / Abbandonati
06. Illuse le intenzioni
07. Il Re Del Circo
08. Koln Raid
09. Exit (strum.)
10. Un Porto Nel Sole

Total time: 46:04

Exact Audio Copy V0.99 prebeta 5 from 4. May 2009

Отчёт EAC об извлечении, выполненном 18. марта 2011, 23:24

Museo Rosenbach / Exit

Дисковод: MAD DOG MD-16X3DVD9-8XB Adapter: 3 ID: 1

Режим чтения : Достоверность
Использование точного потока : Да
Отключение кэша аудио : Да
Использование указателей C2 : Нет

Коррекция смещения при чтении : 48
Способность читать области Lead-in и Lead-out : Нет
Заполнение пропущенных сэмплов тишиной : Да
Удаление блоков с тишиной в начале и конце : Нет
При вычислениях CRC использовались нулевые сэмплы : Да
Интерфейс : Установленный внешний ASPI-интерфейс

Выходной формат : Внутренние WAV-операции
Формат сэмплов : 44.100 Гц; 16 бит; стерео


TOC извлечённого CD

Трек | Старт | Длительность | Начальный сектор | Конечный сектор
––––––––––––––––––––––––––––––––––-
1 | 0:00.00 | 1:35.52 | 0 | 7176
2 | 1:35.52 | 5:38.29 | 7177 | 32555
3 | 7:14.06 | 4:45.00 | 32556 | 53930
4 | 11:59.06 | 4:07.32 | 53931 | 72487
5 | 16:06.38 | 6:34.42 | 72488 | 102079
6 | 22:41.05 | 5:08.65 | 102080 | 125244
7 | 27:49.70 | 7:30.17 | 125245 | 159011
8 | 35:20.12 | 4:20.45 | 159012 | 178556
9 | 39:40.57 | 1:46.26 | 178557 | 186532
10 | 41:27.08 | 4:37.06 | 186533 | 207313


Характеристики диапазона извлечения и сообщения об ошибках

Выбранный диапазон

Имя файла D:\obraz\Museo Rosenbach - Exit\Museo Rosenbach - Exit.wav

Пиковый уровень 100.0 %
Качество диапазона 100.0 %
CRC теста E742D68E
CRC копии E742D68E
Копирование… OK

Ошибок не произошло


AccurateRip: сводка

Трек 1 точное извлечение (доверие 2) [768E340C]
Трек 2 точное извлечение (доверие 3) [B413BC9B]
Трек 3 точное извлечение (доверие 2) [B7E9F1E6]
Трек 4 точное извлечение (доверие 2) [6496EBC6]
Трек 5 точное извлечение (доверие 2) [F161AB7F]
Трек 6 точное извлечение (доверие 2) [4AF0841B]
Трек 7 точное извлечение (доверие 2) [3C61EC4F]
Трек 8 точное извлечение (доверие 2) [1340931C]
Трек 9 точное извлечение (доверие 2) [2D70F30B]
Трек 10 точное извлечение (доверие 2) [A79AE51B]

Все треки извлечены точно

Конец отчёта

[CUETools log; Date: 19.08.2021 13:26:03; Version: 2.1.4]
[CTDB TOCID: .bnzU8c.FHem_8HClbz1rM4uj_o-] found.
Track | CTDB Status
1 | (7/7) Accurately ripped
2 | (7/7) Accurately ripped
3 | (7/7) Accurately ripped
4 | (7/7) Accurately ripped
5 | (7/7) Accurately ripped
6 | (7/7) Accurately ripped
7 | (7/7) Accurately ripped
8 | (7/7) Accurately ripped
9 | (7/7) Accurately ripped
10 | (7/7) Accurately ripped
[AccurateRip ID: 00112a1d-008c7233-890acc0a] found.
Track [ CRC | V2 ] Status
01 [768e340c|68231b4d] (3+5/8) Accurately ripped
02 [b413bc9b|4d99d641] (4+5/9) Accurately ripped
03 [b7e9f1e6|4eb109f7] (3+5/8) Accurately ripped
04 [6496ebc6|35279d10] (3+5/8) Accurately ripped
05 [f161ab7f|3fda9d86] (3+5/8) Accurately ripped
06 [4af0841b|cf9f9b30] (3+5/8) Accurately ripped
07 [3c61ec4f|d4643358] (3+5/8) Accurately ripped
08 [1340931c|388eb4f8] (3+5/8) Accurately ripped
09 [2d70f30b|a401365d] (3+5/8) Accurately ripped
10 [a79ae51b|b5baadcf] (3+5/8) Accurately ripped

Track Peak [ CRC32 ] [W/O NULL] [ LOG ]
– 100,0 [E742D68E] [4DC82BE0] CRC32
01 96,5 [987666EA] [138C1503]
02 96,5 [76F8D1F0] [5797272B]
03 96,5 [AA643ABB] [8260E9D1]
04 96,5 [04A829F0] [2C94474D]
05 96,5 [2D395F7B] [D94A0CF6]
06 98,2 [E91E4817] [1D904019]
07 100,0 [34724A7C] [67A5BE5A]
08 96,5 [C0245AB0] [5B48C128]
09 57,4 [BFF74D1F] [52315AB2]
10 96,5 [D9DBC364] [C718705E]

Thanks to novox

See also:
Museo Rosenbach - Zarathustra (1973) [Japanese Edition 2003]