Tags
Language
Tags

Musica Antiqua Köln, Reinhard Goebel - Sonaten aus Dresden (2006) (Repost)

Posted By: tirexiss
Musica Antiqua Köln, Reinhard Goebel - Sonaten aus Dresden (2006) (Repost)

Musica Antiqua Köln, Reinhard Goebel - Sonaten aus Dresden (2006)
EAC | FLAC (image+.cue, log) | Covers Included | 55:12 | 342 MB
Genre: Classical | Label: Challenge Classics | Catalog: cc 72032

Dresden’s image as the fosterer of a musical golden age during the 18th century is assured, today more than ever, thanks to the almost perfect preservation of the music of that period. So far as the 17th century is concerned, however, the picture is much bleaker: the bombardment of the town by Friedrich II of Brandenburg- Prussia (during the Seven Years’ War in 1760), destroyed not only the residence of Johann Adolf Hasse (whom Friedrich admired passionately), along with the engravings for the planned complete edition of his works by the Leipzig publisher Breitkopf, but also the archive in which a selection of the music of the court chapel was stored. Heinrich Schütz’s opera Dafne, his reworking of Monteverdi’s Il combattimento di Tancredi e Clorinda, together with all Schütz’s unpublished occasional works and those of his contemporaries and successors, were consumednby flames. Only manuscripts which happened to be absent from the archive or which had been copied prior to 9 being sent to other music-loving courts have not irrevocably lost.
The largest remnants of the Dresden repertory are undoubtedly those preserved in Uppsala, Sweden: here, after 1650, the musicians Andreas and Gustav Düben compiled a collection that was in keeping with the imperial claims of the Swedish crown; the manuscript part of the collection preserves works by composers from Rome, Venice, Vienna, Dresden and Lübeck, almost all of them unica. The survival of these works in Sweden is mainly due to the fact that the Swedes were eagerly embroiled in every European war until 1720 (the death of Charles XII), but no one thought of giving the Swedes a taste of their own medicine in their own country.

Musica Antiqua Köln, Reinhard Goebel - Sonaten aus Dresden (2006) (Repost)

Track List:

Pietro Andrea Ziani (1616-1684)
1. Sonate Nr.11 (1678/91) g-moll für 2 Violinen, 2 Violen, Violoncello und Basso Continuo
Basso Continuo: Orgel, Theorbe

Johann Wilhelm Furchheim (1640-1682)
2. Sonate Es-dur für 2 Violinen, 2 Violen, Violoncello und Basso Continuo
Basso Continuo: Cembalo

3. Sonatella A-dur für 3 Violinen, 2 Violen, Violoncello und Basso Continuo
Basso Continuo: Cembalo, Theorbe

4. Sonate D-dur für 3 Violinen, 2 Violen, Violoncello und Basso Continuo
Basso Continuo: Orgel, Theorbe

Pietro Andrea Ziani
5. Sonate Nr.12 (1678/91) d-moll für 2 Violinen, 2 Violen, Violoncello und Basso Continuo
Basso Continuo: Orgel, Theorbe

Clemens Thieme (1631-1668)
6. Sonate e-moll für 4 Viole "da braccio", Violoncello und Basso Continuo
Basso Continuo: Theorbe

7. Sonate d-moll für 4 Viole "da braccio", Violoncello und Basso Continuo
Basso Continuo: Orgel, Theorbe

Johann Joseph Fux (1660-1741)
8. Rondeau à 7 für "Violino piccolo", Fagott, 4 Violinen und Basso Continuo
Basso Continuo: Cembalo, Theorbe

Performers:
Musica Antiqua Köln
Florian Deuter Violine (J.Rogieri, Brescia 1713), Violetta (anon., Tirol 1650), Violino piccolo (G.B. Rogeri, Brescia 1680)
Reinhard Goebel Violine (Jacobus Stainer, Absam 1665), Viola (Muthesius 1994, nach Stainer)
Isabel Schau Violine (Klier 1992, nach Stainer)
Wolfgang von Kessinger Viola (anon., Flanders 1650)
Volker Möller Viola (Leopold Widhalm, Nürnberg 1742)
Markus Möllenbeck Violoncello (Simon Gilbert, Metz 1756)
Christian Rieger Cembalo (Keith Hill 1997, nach Christian Zell), Orgel (Klaus Becker, Kupfermühle 1978)
Rainer Johannsen Fagott (Laurent Verjat 1994, nach Prudent)
Michael Dücker Theorbe (H.Hasenfuß 1987, nach Pietro Railich)

Exact Audio Copy V1.0 beta 3 from 29. August 2011

EAC extraction logfile from 3. June 2014, 19:16

Various Composers / Sonaten aus Dresden

Used drive : Optiarc DVD RW AD-7173A Adapter: 3 ID: 0

Read mode : Secure
Utilize accurate stream : Yes
Defeat audio cache : Yes
Make use of C2 pointers : No

Read offset correction : 48
Overread into Lead-In and Lead-Out : No
Fill up missing offset samples with silence : Yes
Delete leading and trailing silent blocks : No
Null samples used in CRC calculations : Yes
Used interface : Native Win32 interface for Win NT & 2000

Used output format : Internal WAV Routines
Sample format : 44.100 Hz; 16 Bit; Stereo


TOC of the extracted CD

Track | Start | Length | Start sector | End sector
––––––––––––––––––––––––––––-
1 | 0:00.00 | 9:21.40 | 0 | 42114
2 | 9:21.40 | 5:59.10 | 42115 | 69049
3 | 15:20.50 | 6:32.35 | 69050 | 98484
4 | 21:53.10 | 10:20.20 | 98485 | 145004
5 | 32:13.30 | 6:51.22 | 145005 | 175851
6 | 39:04.52 | 6:38.65 | 175852 | 205766
7 | 45:43.42 | 4:42.43 | 205767 | 226959
8 | 50:26.10 | 4:46.22 | 226960 | 248431


Range status and errors

Selected range

Filename C:\Scanned\1\Various Composers - Sonaten aus Dresden.wav

Peak level 99.2 %
Extraction speed 4.9 X
Range quality 100.0 %
Copy CRC 39BC033C
Copy OK

No errors occurred


AccurateRip summary

Track 1 accurately ripped (confidence 3) [EE20408D] (AR v1)
Track 2 accurately ripped (confidence 3) [DE3D5686] (AR v1)
Track 3 accurately ripped (confidence 3) [95363F76] (AR v1)
Track 4 accurately ripped (confidence 3) [C8CFCE9F] (AR v1)
Track 5 accurately ripped (confidence 3) [852C8BDA] (AR v1)
Track 6 accurately ripped (confidence 3) [18C8E450] (AR v1)
Track 7 accurately ripped (confidence 3) [59A2042A] (AR v1)
Track 8 accurately ripped (confidence 3) [E0F7D9AA] (AR v1)

All tracks accurately ripped

End of status report

==== Log checksum 82E38114456DCBC3741D1FAA62B97A05295C6B9C5D4567B1D256F504805592D3 ====

[CUETools log; Date: 22.11.2017 21:21:33; Version: 2.1.5]
[CTDB TOCID: SqQTXYkAoyIHo8Q_dUbQ1pkeA0s-] found.
Track | CTDB Status
1 | (6/6) Accurately ripped
2 | (6/6) Accurately ripped
3 | (6/6) Accurately ripped
4 | (6/6) Accurately ripped
5 | (6/6) Accurately ripped
6 | (6/6) Accurately ripped
7 | (6/6) Accurately ripped
8 | (6/6) Accurately ripped
[AccurateRip ID: 00127d12-00796b93-670cf008] found.
Track [ CRC | V2 ] Status
01 [ee20408d|f5c14c48] (3+0/7) Accurately ripped
02 [de3d5686|fae049b4] (3+0/7) Accurately ripped
03 [95363f76|ca9ce79f] (3+0/7) Accurately ripped
04 [c8cfce9f|7e402a6c] (3+0/7) Accurately ripped
05 [852c8bda|3756c93b] (3+0/7) Accurately ripped
06 [18c8e450|5fdb98fd] (3+0/7) Accurately ripped
07 [59a2042a|1e2251ee] (3+0/7) Accurately ripped
08 [e0f7d9aa|e2f68bfc] (3+0/7) Accurately ripped
Offsetted by 29:
01 [14067e69] (0/7) No match (V2 was not tested)
02 [303f215d] (0/7) No match (V2 was not tested)
03 [b42b41cb] (0/7) No match (V2 was not tested)
04 [d51c0aef] (0/7) No match (V2 was not tested)
05 [c3ee13cd] (0/7) No match (V2 was not tested)
06 [2799a322] (0/7) No match (V2 was not tested)
07 [19dbf5ad] (0/7) No match (V2 was not tested)
08 [c084207c] (0/7) No match (V2 was not tested)
Offsetted by 696:
01 [9ffa89c2] (0/7) No match (V2 was not tested)
02 [023553f6] (0/7) No match (V2 was not tested)
03 [576b8df0] (0/7) No match (V2 was not tested)
04 [84dd6733] (0/7) No match (V2 was not tested)
05 [3f536c22] (0/7) No match (V2 was not tested)
06 [990ee658] (0/7) No match (V2 was not tested)
07 [a76e9871] (0/7) No match (V2 was not tested)
08 [7cad9d70] (0/7) No match (V2 was not tested)

Track Peak [ CRC32 ] [W/O NULL] [ LOG ]
– 99,2 [39BC033C] [AD5211A5] CRC32
01 71,5 [80FF1723] [6D9C25D2]
02 66,7 [3466C803] [D0DD196A]
03 99,2 [459E2D00] [CB27CE72]
04 99,2 [22976218] [52D3C506]
05 73,7 [54D6FD9C] [B600C55E]
06 50,2 [525B0E92] [9A85136D]
07 68,1 [A67DA366] [824F4AFA]
08 99,1 [CAE80344] [94173449]

Thanks to the Original ripper unrotten!

Download: