Subcategories

Musica Nuda (Petra Magoni and Ferruccio Spinetti) - Live a Fip (2007)

Posted By: Designol
Musica Nuda (Petra Magoni and Ferruccio Spinetti) - Live a Fip (2007)

Musica Nuda (Petra Magoni and Ferruccio Spinetti) - Live à Fip (2007)
EAC | FLAC | Tracks (Cue&Log) ~ 375 Mb | Mp3 (CBR320) ~ 193 Mb | Scans included
Vocal Jazz, Bass Jazz, Jazz-Pop | Label: Bonsaï Music | # BON 07 08 01 | Time: 01:10:19

Comprised of vocalist Petra Magoni and bassist Ferruccio Spinetti, Musica Nuda are an Italian vocal jazz-pop duo whose popularity carried over to neighboring countries, especially France, during the mid-2000s. Born in Pisa, Tuscany, on July 28, 1972, Magoni studied music at the Conservatory of Leghorn and at the Pontifical Institute of Sacred Music in Milan. A versatile singer, she performed opera at the Teatro Verdi in Pisa early in her career while at the same time fronting a local rock group, Senza Freni. Petra Magoni (1996) marked her full-length solo album debut and was followed by a second solo album, Mulini a Vento (1997). She subsequently adopted the moniker Sweet Anima and released an eponymous album of English-language songs written by Lucio Battisti in 2000. In addition, she collaborated with Giampaolo Antoni in the electro-pop duo Aromatic, which resulted in the album Still Alive (2004). Most successful among her recording ventures, however, was Musica Nuda, a vocal jazz-pop collaboration with Piccola Orchestra Avion Travel bassist Ferruccio Spinetti that made its critically acclaimed eponymous album debut in 2004. Comprised primarily of well-known standards, many of them in English (e.g., the Beatles' "Eleanor Rigby"), the album was later licensed for reissue internationally by the Bonsaï Music label. While the duo's eponymous debut proved successful from a critical standpoint, the follow-up album, Musica Nuda 2 (2006), was internationally successful from a commercial standpoint as well, breaking into the French albums chart for seven weeks. Running two discs and 27 songs in length, Musica Nuda 2 features numerous guests. In the midst of their international breakthrough success, Magoni and Spinetti released a pair of live recordings: a video, Live in Paris (2006); and an album, Live à Fip (2007). A third studio album, 55/21 (2008), followed shortly thereafter.

– Jason Birchmeier, Allmusic.com

Musica Nuda (Petra Magoni and Ferruccio Spinetti) - Live a Fip (2007)

Musica Nuda (Petra Magoni and Ferruccio Spinetti) - Live a Fip (2007)



Tracklist:

01. Come Together (3:44)
02. Roxane (3:33)
03. Message in a bottle (4:04)
04. Dindiandi (2:45)
05. Quando (3:20)
06. Io sono meta (3:23)
07. I will survive (4:07)
08. Day tripper (4:38)
09. Fever (4:56)
10. La voce del silencio (2:52)
11. Le due corde vocali (intro) (0:36)
12. Le due corde vocali (5:24)
13. Angeli (2:35)
14. Nessuno (2:05)
15. Couleur cafe (2:35)
16. Ne me quitte pas (3:10)
17. Amarilli (2:24)
18. You're the one that I want (4:09)
19. Il camello e il dromedario (3:24)
20. Perche no (3:59)
21. Guarda che luna (2:37)


Exact Audio Copy V0.99 prebeta 5 from 4. May 2009

EAC extraction logfile from 1. September 2010, 11:19

Musica Nuda / Live a FIP

Used drive : PLEXTOR DVDR PX-860A Adapter: 0 ID: 0

Read mode : Secure
Utilize accurate stream : Yes
Defeat audio cache : Yes
Make use of C2 pointers : No

Read offset correction : 96
Overread into Lead-In and Lead-Out : No
Fill up missing offset samples with silence : Yes
Delete leading and trailing silent blocks : No
Null samples used in CRC calculations : Yes
Used interface : Native Win32 interface for Win NT & 2000
Gap handling : Appended to previous track

Used output format : User Defined Encoder
Selected bitrate : 768 kBit/s
Quality : High
Add ID3 tag : No
Command line compressor : C:\Program Files\FLAC\flac.exe
Additional command line options : -8 -V -T "ARTIST=%a" -T "TITLE=%t" -T "ALBUM=%g" -T "DATE=%y" -T "TRACKNUMBER=%n" -T "TOTALTRACKS=%x" -T "GENRE=%m" -T "ALBUM ARTIST=%v" -T "ALBUMARTIST=%v" -T "COMMENT=EAC V0.99 prebeta 5, Secure Mode, Test & Copy, Accurat


TOC of the extracted CD

Track | Start | Length | Start sector | End sector
––––––––––––––––––––––––––––-
1 | 0:00.00 | 3:43.60 | 0 | 16784
2 | 3:43.60 | 3:32.69 | 16785 | 32753
3 | 7:16.54 | 4:03.41 | 32754 | 51019
4 | 11:20.20 | 2:44.40 | 51020 | 63359
5 | 14:04.60 | 3:20.08 | 63360 | 78367
6 | 17:24.68 | 3:23.03 | 78368 | 93595
7 | 20:47.71 | 4:07.31 | 93596 | 112151
8 | 24:55.27 | 4:37.45 | 112152 | 132971
9 | 29:32.72 | 4:55.61 | 132972 | 155157
10 | 34:28.58 | 2:51.46 | 155158 | 168028
11 | 37:20.29 | 0:36.01 | 168029 | 170729
12 | 37:56.30 | 5:24.27 | 170730 | 195056
13 | 43:20.57 | 2:34.53 | 195057 | 206659
14 | 45:55.35 | 2:04.66 | 206660 | 216025
15 | 48:00.26 | 2:34.38 | 216026 | 227613
16 | 50:34.64 | 3:10.06 | 227614 | 241869
17 | 53:44.70 | 2:24.04 | 241870 | 252673
18 | 56:08.74 | 4:09.00 | 252674 | 271348
19 | 60:17.74 | 3:24.30 | 271349 | 286678
20 | 63:42.29 | 3:58.74 | 286679 | 304602
21 | 67:41.28 | 2:37.14 | 304603 | 316391


Track 1

Filename M:\DL\Musica Nuda - Live a FIP (2007) [FLAC]\01 - Come Together.wav

Pre-gap length 0:00:02.00

Peak level 100.0 %
Track quality 99.9 %
Test CRC BD7B16E2
Copy CRC BD7B16E2
Accurately ripped (confidence 9) [A4F75D90]
Copy OK

Track 2

Filename M:\DL\Musica Nuda - Live a FIP (2007) [FLAC]\02 - Roxane.wav

Peak level 100.0 %
Track quality 100.0 %
Test CRC 09CFE2AF
Copy CRC 09CFE2AF
Accurately ripped (confidence 9) [A8824C25]
Copy OK

Track 3

Filename M:\DL\Musica Nuda - Live a FIP (2007) [FLAC]\03 - Message in a bottle.wav

Peak level 100.0 %
Track quality 100.0 %
Test CRC A8DD763E
Copy CRC A8DD763E
Accurately ripped (confidence 8) [C999CC8E]
Copy OK

Track 4

Filename M:\DL\Musica Nuda - Live a FIP (2007) [FLAC]\04 - Dindiandi.wav

Peak level 100.0 %
Track quality 100.0 %
Test CRC 2D2B499C
Copy CRC 2D2B499C
Accurately ripped (confidence 9) [CDF13924]
Copy OK

Track 5

Filename M:\DL\Musica Nuda - Live a FIP (2007) [FLAC]\05 - Quando.wav

Peak level 100.0 %
Track quality 100.0 %
Test CRC 0CE6E58C
Copy CRC 0CE6E58C
Accurately ripped (confidence 9) [203ECAA4]
Copy OK

Track 6

Filename M:\DL\Musica Nuda - Live a FIP (2007) [FLAC]\06 - Io sono meta.wav

Peak level 100.0 %
Track quality 100.0 %
Test CRC 4C15DD7D
Copy CRC 4C15DD7D
Accurately ripped (confidence 9) [2AC1BCB7]
Copy OK

Track 7

Filename M:\DL\Musica Nuda - Live a FIP (2007) [FLAC]\07 - I will survive.wav

Peak level 100.0 %
Track quality 100.0 %
Test CRC 84B4F371
Copy CRC 84B4F371
Accurately ripped (confidence 9) [FC1B111A]
Copy OK

Track 8

Filename M:\DL\Musica Nuda - Live a FIP (2007) [FLAC]\08 - Day tripper.wav

Peak level 100.0 %
Track quality 99.9 %
Test CRC 95E40558
Copy CRC 95E40558
Accurately ripped (confidence 9) [8C2F0467]
Copy OK

Track 9

Filename M:\DL\Musica Nuda - Live a FIP (2007) [FLAC]\09 - Fever.wav

Peak level 100.0 %
Track quality 100.0 %
Test CRC EF50F7C1
Copy CRC EF50F7C1
Accurately ripped (confidence 9) [9948CECD]
Copy OK

Track 10

Filename M:\DL\Musica Nuda - Live a FIP (2007) [FLAC]\10 - La voce del silencio.wav

Peak level 100.0 %
Track quality 100.0 %
Test CRC 2E0E10A1
Copy CRC 2E0E10A1
Accurately ripped (confidence 9) [6D6AE820]
Copy OK

Track 11

Filename M:\DL\Musica Nuda - Live a FIP (2007) [FLAC]\11 - Le due corde vocali (intro).wav

Peak level 100.0 %
Track quality 100.0 %
Test CRC D7C252F3
Copy CRC D7C252F3
Accurately ripped (confidence 9) [250EA454]
Copy OK

Track 12

Filename M:\DL\Musica Nuda - Live a FIP (2007) [FLAC]\12 - Le due corde vocali.wav

Peak level 100.0 %
Track quality 100.0 %
Test CRC 69FD5EAF
Copy CRC 69FD5EAF
Accurately ripped (confidence 8) [F25B94E4]
Copy OK

Track 13

Filename M:\DL\Musica Nuda - Live a FIP (2007) [FLAC]\13 - Angeli.wav

Peak level 100.0 %
Track quality 99.9 %
Test CRC B78CB6D1
Copy CRC B78CB6D1
Accurately ripped (confidence 9) [4B063FED]
Copy OK

Track 14

Filename M:\DL\Musica Nuda - Live a FIP (2007) [FLAC]\14 - Nessuno.wav

Peak level 100.0 %
Track quality 99.9 %
Test CRC 3C76236B
Copy CRC 3C76236B
Accurately ripped (confidence 9) [43F77893]
Copy OK

Track 15

Filename M:\DL\Musica Nuda - Live a FIP (2007) [FLAC]\15 - Couleur cafe.wav

Peak level 100.0 %
Track quality 100.0 %
Test CRC 4528232D
Copy CRC 4528232D
Accurately ripped (confidence 9) [5989D251]
Copy OK

Track 16

Filename M:\DL\Musica Nuda - Live a FIP (2007) [FLAC]\16 - Ne me quitte pas.wav

Peak level 100.0 %
Track quality 100.0 %
Test CRC C696FAA9
Copy CRC C696FAA9
Accurately ripped (confidence 9) [1418A913]
Copy OK

Track 17

Filename M:\DL\Musica Nuda - Live a FIP (2007) [FLAC]\17 - Amarilli.wav

Peak level 100.0 %
Track quality 100.0 %
Test CRC FE1458A9
Copy CRC FE1458A9
Accurately ripped (confidence 9) [C5A35A2A]
Copy OK

Track 18

Filename M:\DL\Musica Nuda - Live a FIP (2007) [FLAC]\18 - You're the one that I want.wav

Peak level 100.0 %
Track quality 100.0 %
Test CRC CD67A993
Copy CRC CD67A993
Accurately ripped (confidence 9) [12CD39E6]
Copy OK

Track 19

Filename M:\DL\Musica Nuda - Live a FIP (2007) [FLAC]\19 - Il camello e il dromedario.wav

Peak level 100.0 %
Track quality 100.0 %
Test CRC DC564180
Copy CRC DC564180
Accurately ripped (confidence 9) [B60E95DF]
Copy OK

Track 20

Filename M:\DL\Musica Nuda - Live a FIP (2007) [FLAC]\20 - Perche no.wav

Peak level 100.0 %
Track quality 100.0 %
Test CRC AFE4BD7F
Copy CRC AFE4BD7F
Accurately ripped (confidence 9) [3BFC04AC]
Copy OK

Track 21

Filename M:\DL\Musica Nuda - Live a FIP (2007) [FLAC]\21 - Guarda che luna.wav

Peak level 100.0 %
Track quality 100.0 %
Test CRC 53AEE453
Copy CRC 53AEE453
Accurately ripped (confidence 9) [96EF9FA1]
Copy OK


All tracks accurately ripped

No errors occurred

End of status report

[CUETools log; Date: 18.05.2018 14:44:18; Version: 2.1.4]
[CTDB TOCID: hZEE3EM5Koc1oPiT_hzS76sf3aw-] found.
Track | CTDB Status
1 | (77/85) Accurately ripped
2 | (85/85) Accurately ripped
3 | (85/85) Accurately ripped
4 | (85/85) Accurately ripped
5 | (85/85) Accurately ripped
6 | (85/85) Accurately ripped
7 | (85/85) Accurately ripped
8 | (85/85) Accurately ripped
9 | (85/85) Accurately ripped
10 | (85/85) Accurately ripped
11 | (85/85) Accurately ripped
12 | (85/85) Accurately ripped
13 | (85/85) Accurately ripped
14 | (85/85) Accurately ripped
15 | (85/85) Accurately ripped
16 | (84/85) Accurately ripped
17 | (85/85) Accurately ripped
18 | (85/85) Accurately ripped
19 | (84/85) Accurately ripped
20 | (85/85) Accurately ripped
21 | (82/85) Accurately ripped
[AccurateRip ID: 0036d678-0340305b-30107a15] found.
Track [ CRC | V2 ] Status
01 [a4f75d90|fc3ed21b] (16+52/68) Accurately ripped
02 [a8824c25|6df50f62] (16+52/68) Accurately ripped
03 [c999cc8e|ef575b19] (15+52/67) Accurately ripped
04 [cdf13924|b49b8575] (16+52/68) Accurately ripped
05 [203ecaa4|9443b4c4] (16+52/68) Accurately ripped
06 [2ac1bcb7|beac5d66] (16+52/68) Accurately ripped
07 [fc1b111a|426e2351] (16+52/68) Accurately ripped
08 [8c2f0467|1d9451b7] (17+52/69) Accurately ripped
09 [9948cecd|be8bfcbd] (16+52/68) Accurately ripped
10 [6d6ae820|d0bd01db] (16+52/68) Accurately ripped
11 [250ea454|7d29af25] (16+52/68) Accurately ripped
12 [f25b94e4|a55a8e04] (15+52/67) Accurately ripped
13 [4b063fed|659d470f] (16+52/68) Accurately ripped
14 [43f77893|fd2c30f2] (16+52/68) Accurately ripped
15 [5989d251|58d5a3e6] (16+52/68) Accurately ripped
16 [1418a913|83aca2b9] (16+51/67) Accurately ripped
17 [c5a35a2a|3c713691] (16+52/68) Accurately ripped
18 [12cd39e6|ad641d9b] (16+52/68) Accurately ripped
19 [b60e95df|48759f30] (16+52/68) Accurately ripped
20 [3bfc04ac|19b11937] (16+52/68) Accurately ripped
21 [96ef9fa1|aadb8cce] (16+50/66) Accurately ripped

Track Peak [ CRC32 ] [W/O NULL] [ LOG ]
– 100,0 [15B5DD19] [71A73C31]
01 100,0 [BD7B16E2] [CDCD350F] CRC32
02 100,0 [09CFE2AF] [B1886FEF] CRC32
03 100,0 [A8DD763E] [B8896709] CRC32
04 100,0 [2D2B499C] [9C3B372F] CRC32
05 100,0 [0CE6E58C] [17E3CFE4] CRC32
06 100,0 [4C15DD7D] [02581DC1] CRC32
07 100,0 [84B4F371] [24DA09C3] CRC32
08 100,0 [95E40558] [63FC738A] CRC32
09 100,0 [EF50F7C1] [0A354C9E] CRC32
10 100,0 [2E0E10A1] [0AEAA997] CRC32
11 100,0 [D7C252F3] [A34909E7] CRC32
12 100,0 [69FD5EAF] [104ADA58] CRC32
13 100,0 [B78CB6D1] [9FA101DF] CRC32
14 100,0 [3C76236B] [C219326D] CRC32
15 100,0 [4528232D] [4A40C77C] CRC32
16 100,0 [C696FAA9] [812BD420] CRC32
17 100,0 [FE1458A9] [B87E095E] CRC32
18 100,0 [CD67A993] [BAC3D357] CRC32
19 100,0 [DC564180] [577E0F83] CRC32
20 100,0 [AFE4BD7F] [87D38CAB] CRC32
21 100,0 [53AEE453] [C5235635] CRC32

foobar2000 1.2 / Dynamic Range Meter 1.1.1
log date: 2018-05-18 14:36:21

––––––––––––––––––––––––––––––––––––––––
Analyzed: Musica Nuda / Live a FIP
––––––––––––––––––––––––––––––––––––––––

DR Peak RMS Duration Track
––––––––––––––––––––––––––––––––––––––––
DR8 0.00 dB -10.61 dB 3:44 01-Come Together
DR8 0.00 dB -11.17 dB 3:33 02-Roxane
DR8 0.00 dB -10.68 dB 4:04 03-Message in a bottle
DR11 0.00 dB -12.52 dB 2:45 04-Dindiandi
DR8 0.00 dB -12.47 dB 3:20 05-Quando
DR8 0.00 dB -11.99 dB 3:23 06-Io sono meta
DR8 0.00 dB -11.11 dB 4:07 07-I will survive
DR9 0.00 dB -12.39 dB 4:38 08-Day tripper
DR9 0.00 dB -11.21 dB 4:56 09-Fever
DR7 0.00 dB -10.38 dB 2:52 10-La voce del silencio
DR15 0.00 dB -19.45 dB 0:36 11-Le due corde vocali (intro)
DR10 0.00 dB -12.41 dB 5:24 12-Le due corde vocali
DR9 0.00 dB -14.57 dB 2:35 13-Angeli
DR14 0.00 dB -16.82 dB 2:05 14-Nessuno
DR10 0.00 dB -13.09 dB 2:35 15-Couleur cafe
DR10 0.00 dB -13.68 dB 3:10 16-Ne me quitte pas
DR12 0.00 dB -15.73 dB 2:24 17-Amarilli
DR9 0.00 dB -12.62 dB 4:09 18-You're the one that I want
DR10 0.00 dB -12.87 dB 3:24 19-Il camello e il dromedario
DR8 0.00 dB -13.47 dB 3:59 20-Perche no
DR9 0.00 dB -11.79 dB 2:37 21-Guarda che luna
––––––––––––––––––––––––––––––––––––––––

Number of tracks: 21
Official DR value: DR9

Samplerate: 44100 Hz
Channels: 2
Bits per sample: 16
Bitrate: 773 kbps
Codec: FLAC
================================================================================

Musica Nuda (Petra Magoni and Ferruccio Spinetti) - Live a Fip (2007)

Musica Nuda (Petra Magoni and Ferruccio Spinetti) - Live a Fip (2007)