Tags
Language
Tags

Musica Pacifica - Marin Marais: Pièces en Trio (1997)

Posted By: ArlegZ
Musica Pacifica - Marin Marais: Pièces en Trio (1997)

Musica Pacifica - Marin Marais: Pièces en Trio (1997)
EAC | FLAC | Image (Cue & Log) ~ 707 Mb | Total time: 73:12+62:40 | Scans included
Classical | Virgin Veritas | 5 61365 2 | Recorded: 1996

French Baroque instrumental music (in this case from the last two decades of the seventeenth century) enjoys a somewhat doubtful reputation as being mannered and all cast in the same mould. Well, there is no smoke without fire, and sure enough, the individual movements on this recording do all sound in some wise “typical”, with the usual French dance movements (sarabande, gigue, rondeau, menuet, gavotte) predominating. And yet, there are here some outstanding passages: If you want a sample of what Marin Marais was capable of in an area other than that of his belovèd viola da gamba, then listen in to CD 1, Track 8 (Passacaille) or CD 2, Track 6 (Chaconne), where the instruments intertwine and swirl around each other for well over five minutes at a time.
Musica Pacifica, a group of soloists from the Philharmonia Baroque Orchestra of San Francisco, have made a really excellent job of this recording. In her performance notes, Judith Linsenberg explains how the ensemble approaches this music: it has been re-arranged into shorter suites and partly extended to more than three instruments or transposed, but all in accord with the customs and practice of the late seventeenth century. And the playing is superb: Ms. Linsenberg herself gives a stunning performance on three different recorders (treble, discant and voice flute), while Elizabeth Blumenstock is absolutely delightful on her Italian copy of a Stradivari. The oboe, viola da gamba, archlute and harpsichord (all also copies of historical instruments) are equally able to impress and create a delightful sound-mix that really does seem to put the listener into the King of France’s “chambre”!

Performer:
Musica Pacifica

Track List:
CD1:
Suite in G minor
01. Prélude
02. Fantaisie
03. Sarabande
04. Rondeau
05. Gigue
06. Menuet
07. Menuet
08. Passacaille
Suite in B flat major
09. Symphonie
10. [Sarabande]
11. Air
12. Rondeau
13. Plainte
14. Chaconne
Contrefaiseurs, for viola da gamba & continuo in C minor (Pièces de viole, Book III, No. 134)
15. Les Contrefaiseurs
Suite in G minor
16. Plainte
17. Gavotte
18. Sarabande
19. Air
20. Petite passacaille
Suite in B flat major
21. Prélude
22. Caprice
23. Sarabande grave
24. Gavotte
25. Gigue
26. La Marianne
27. Menuet
28. Menuet
Suite in D major
29. Prélude
30. Sarabande grave
31. Gavotte en rondeau - Double
32. 1er Menuet
33. 2e Menuet
34. Gigue
35. Symphonie
36. Fantaisie champestre
37. 3e Menuet
38. 4e Menuet
39. Rigaudon
40. Bransle de village
CD2:
Suite in C major
01. Prélude
02. Sarabande
03. Loure
04. Bagatelle
05. Rondeau
06. Chaconne
Suite in D minor
07. Caprice
08. Gavotte
09. Sarabande en rondeau
10. Menuet
Suite in C major
11. Fantaisie
12. Sarabande
13. Gavotte
14. Menuet
15. Autre
Suite in C minor
16. Prélude
17. Sarabande grave
18. Rondeau
19. Caprice
20. Gavotte
21. Menuet
22. Autre
23. Fantaisie
24. La désolée, ou passacaille lente
Suite in E minor
25. Prélude
26. Fantaisie
27. Rondeau
28. Menuet
29. Sarabande
30. Passacaille


Exact Audio Copy V1.3 from 2. September 2016

EAC extraction logfile from 28. August 2019, 11:09

Musica Pacifica / Marais - Pièces en trio CD1

Used drive : HL-DT-STBD-RE WH16NS40 Adapter: 1 ID: 0

Read mode : Secure
Utilize accurate stream : Yes
Defeat audio cache : Yes
Make use of C2 pointers : No

Read offset correction : 6
Overread into Lead-In and Lead-Out : No
Fill up missing offset samples with silence : Yes
Delete leading and trailing silent blocks : No
Null samples used in CRC calculations : Yes
Used interface : Native Win32 interface for Win NT & 2000

Used output format : User Defined Encoder
Selected bitrate : 1024 kBit/s
Quality : High
Add ID3 tag : No
Command line compressor : C:\Program Files (x86)\Exact Audio Copy\FLAC\FLAC.EXE
Additional command line options : -6 -V -T "ARTIST=%artist%" -T "TITLE=%title%" -T "ALBUM=%albumtitle%" -T "DATE=%year%" -T "TRACKNUMBER=%tracknr%" -T "GENRE=%genre%" -T "COMMENT=%comment%" -T "BAND=%albuminterpret%" -T "ALBUMARTIST=%albuminterpret%" -T "COMPOSER=%composer%" %haslyrics%–tag-from-file=LYRICS="%lyricsfile%"%haslyrics% -T "DISCNUMBER=%cdnumber%" -T "TOTALDISCS=%totalcds%" -T "TOTALTRACKS=%numtracks%" %hascover%–picture="%coverfile%"%hascover% %source% -o %dest%


TOC of the extracted CD

Track | Start | Length | Start sector | End sector
––––––––––––––––––––––––––––-
1 | 0:00.00 | 1:33.72 | 0 | 7046
2 | 1:33.72 | 1:03.00 | 7047 | 11771
3 | 2:36.72 | 2:22.58 | 11772 | 22479
4 | 4:59.55 | 1:00.05 | 22480 | 26984
5 | 5:59.60 | 2:04.22 | 26985 | 36306
6 | 8:04.07 | 1:03.28 | 36307 | 41059
7 | 9:07.35 | 1:01.00 | 41060 | 45634
8 | 10:08.35 | 6:10.72 | 45635 | 73456
9 | 16:19.32 | 1:38.53 | 73457 | 80859
10 | 17:58.10 | 2:59.72 | 80860 | 94356
11 | 20:58.07 | 1:02.45 | 94357 | 99051
12 | 22:00.52 | 1:49.68 | 99052 | 107294
13 | 23:50.45 | 3:26.52 | 107295 | 122796
14 | 27:17.22 | 1:53.33 | 122797 | 131304
15 | 29:10.55 | 1:55.32 | 131305 | 139961
16 | 31:06.12 | 3:11.10 | 139962 | 154296
17 | 34:17.22 | 0:53.15 | 154297 | 158286
18 | 35:10.37 | 2:15.53 | 158287 | 168464
19 | 37:26.15 | 1:26.22 | 168465 | 174936
20 | 38:52.37 | 3:32.25 | 174937 | 190861
21 | 42:24.62 | 1:18.35 | 190862 | 196746
22 | 43:43.22 | 0:39.70 | 196747 | 199741
23 | 44:23.17 | 2:00.58 | 199742 | 208799
24 | 46:24.00 | 0:40.05 | 208800 | 211804
25 | 47:04.05 | 1:23.45 | 211805 | 218074
26 | 48:27.50 | 2:35.27 | 218075 | 229726
27 | 51:03.02 | 0:49.33 | 229727 | 233434
28 | 51:52.35 | 0:48.02 | 233435 | 237036
29 | 52:40.37 | 1:32.68 | 237037 | 244004
30 | 54:13.30 | 2:56.10 | 244005 | 257214
31 | 57:09.40 | 2:22.22 | 257215 | 267886
32 | 59:31.62 | 1:19.03 | 267887 | 273814
33 | 60:50.65 | 0:49.37 | 273815 | 277526
34 | 61:40.27 | 1:50.55 | 277527 | 285831
35 | 63:31.07 | 4:13.48 | 285832 | 304854
36 | 67:44.55 | 1:44.17 | 304855 | 312671
37 | 69:28.72 | 0:42.63 | 312672 | 315884
38 | 70:11.60 | 0:47.27 | 315885 | 319436
39 | 70:59.12 | 1:23.68 | 319437 | 325729
40 | 72:23.05 | 0:47.20 | 325730 | 329274


Range status and errors

Selected range

Filename C:\Users\Grant\Desktop\Musica Pacifica - Marais - Pièces en trio CD1.wav

Peak level 86.3 %
Extraction speed 8.5 X
Range quality 99.9 %
Test CRC 91DD0BD5
Copy CRC 91DD0BD5
Copy OK

No errors occurred


AccurateRip summary

Track 1 cannot be verified as accurate (confidence 4) [F6010141], AccurateRip returned [44DDFB84] (AR v2)
Track 2 cannot be verified as accurate (confidence 3) [12DA5D9E], AccurateRip returned [BE1B7951] (AR v2)
Track 3 cannot be verified as accurate (confidence 4) [E8A995F1], AccurateRip returned [14E87E87] (AR v2)
Track 4 cannot be verified as accurate (confidence 4) [F5866724], AccurateRip returned [11B1D359] (AR v2)
Track 5 cannot be verified as accurate (confidence 4) [339E7602], AccurateRip returned [36AA39F2] (AR v2)
Track 6 cannot be verified as accurate (confidence 4) [759B2499], AccurateRip returned [30EE628C] (AR v2)
Track 7 cannot be verified as accurate (confidence 4) [D03480AF], AccurateRip returned [1A6D5736] (AR v2)
Track 8 cannot be verified as accurate (confidence 4) [D3B861C5], AccurateRip returned [2ADD929F] (AR v2)
Track 9 cannot be verified as accurate (confidence 4) [BD50DE88], AccurateRip returned [B9B7EEF5] (AR v2)
Track 10 cannot be verified as accurate (confidence 4) [E7458777], AccurateRip returned [994AACFE] (AR v2)
Track 11 cannot be verified as accurate (confidence 4) [57360D48], AccurateRip returned [0DC370D1] (AR v2)
Track 12 cannot be verified as accurate (confidence 4) [3629234F], AccurateRip returned [20D9EA55] (AR v2)
Track 13 cannot be verified as accurate (confidence 4) [D979182A], AccurateRip returned [E71D1E55] (AR v2)
Track 14 cannot be verified as accurate (confidence 4) [8E99EF3C], AccurateRip returned [1429B605] (AR v2)
Track 15 cannot be verified as accurate (confidence 4) [B934FB01], AccurateRip returned [EA997FC7] (AR v2)
Track 16 cannot be verified as accurate (confidence 4) [DA957E7B], AccurateRip returned [7EF64405] (AR v2)
Track 17 cannot be verified as accurate (confidence 4) [B0A74DD3], AccurateRip returned [57A9E6C6] (AR v2)
Track 18 cannot be verified as accurate (confidence 4) [96107078], AccurateRip returned [C9648553] (AR v2)
Track 19 cannot be verified as accurate (confidence 4) [3BF51EFE], AccurateRip returned [FF804ABD] (AR v2)
Track 20 cannot be verified as accurate (confidence 4) [ECC6AFE7], AccurateRip returned [071E5FA8] (AR v2)
Track 21 cannot be verified as accurate (confidence 4) [090F7CE1], AccurateRip returned [4B6BB8AF] (AR v2)
Track 22 cannot be verified as accurate (confidence 4) [3EE89CF9], AccurateRip returned [D0EFC4C3] (AR v2)
Track 23 cannot be verified as accurate (confidence 4) [59D21AB0], AccurateRip returned [F4850FED] (AR v2)
Track 24 cannot be verified as accurate (confidence 4) [82F62639], AccurateRip returned [9E8F4E39] (AR v2)
Track 25 cannot be verified as accurate (confidence 4) [BDBDAF91], AccurateRip returned [8BFD73CD] (AR v2)
Track 26 cannot be verified as accurate (confidence 4) [7EE65914], AccurateRip returned [DB41032C] (AR v2)
Track 27 cannot be verified as accurate (confidence 4) [117147AA], AccurateRip returned [5EFCCC4B] (AR v2)
Track 28 cannot be verified as accurate (confidence 4) [0F5A16D2], AccurateRip returned [128BB28B] (AR v2)
Track 29 cannot be verified as accurate (confidence 4) [24058E5D], AccurateRip returned [045E7A67] (AR v2)
Track 30 cannot be verified as accurate (confidence 4) [3D38300E], AccurateRip returned [CA42444B] (AR v2)
Track 31 cannot be verified as accurate (confidence 3) [E67421D0], AccurateRip returned [5FD7BA6D] (AR v2)
Track 32 cannot be verified as accurate (confidence 4) [3BA4D104], AccurateRip returned [5FCE456B] (AR v2)
Track 33 cannot be verified as accurate (confidence 4) [DAAA94CD], AccurateRip returned [94BE06D7] (AR v2)
Track 34 cannot be verified as accurate (confidence 4) [D916166A], AccurateRip returned [34102EC9] (AR v2)
Track 35 cannot be verified as accurate (confidence 4) [9BE05AF8], AccurateRip returned [90313B1F] (AR v2)
Track 36 cannot be verified as accurate (confidence 4) [F3AB4916], AccurateRip returned [A4C40A7B] (AR v2)
Track 37 cannot be verified as accurate (confidence 4) [3A750B8F], AccurateRip returned [67F06EB7] (AR v2)
Track 38 cannot be verified as accurate (confidence 4) [ACC2B7C1], AccurateRip returned [31354C90] (AR v2)
Track 39 cannot be verified as accurate (confidence 4) [D86B2D10], AccurateRip returned [775E1418] (AR v2)
Track 40 cannot be verified as accurate (confidence 4) [395DF77F], AccurateRip returned [EFDCB0FE] (AR v2)

No tracks could be verified as accurate
You may have a different pressing from the one(s) in the database

End of status report

–– CUETools DB Plugin V2.1.6

[CTDB TOCID: 7vKDSRG8M4EmgUHeePSTBP.OrcQ-] found
Submit result: 7vKDSRG8M4EmgUHeePSTBP.OrcQ- has been confirmed
Track | CTDB Status
1 | ( 9/14) Accurately ripped
2 | ( 9/14) Accurately ripped
3 | ( 9/14) Accurately ripped
4 | ( 9/14) Accurately ripped
5 | ( 9/14) Accurately ripped
6 | ( 9/14) Accurately ripped
7 | ( 9/14) Accurately ripped
8 | ( 8/14) Accurately ripped
9 | ( 9/14) Accurately ripped
10 | ( 9/14) Accurately ripped
11 | ( 9/14) Accurately ripped
12 | ( 9/14) Accurately ripped
13 | ( 9/14) Accurately ripped
14 | ( 9/14) Accurately ripped
15 | ( 9/14) Accurately ripped
16 | ( 9/14) Accurately ripped
17 | ( 9/14) Accurately ripped
18 | ( 9/14) Accurately ripped
19 | ( 9/14) Accurately ripped
20 | ( 9/14) Accurately ripped
21 | ( 9/14) Accurately ripped
22 | ( 9/14) Accurately ripped
23 | ( 9/14) Accurately ripped
24 | ( 9/14) Accurately ripped
25 | ( 9/14) Accurately ripped
26 | ( 9/14) Accurately ripped
27 | ( 9/14) Accurately ripped
28 | ( 9/14) Accurately ripped
29 | ( 9/14) Accurately ripped
30 | ( 9/14) Accurately ripped
31 | ( 9/14) Accurately ripped
32 | ( 9/14) Accurately ripped
33 | ( 9/14) Accurately ripped
34 | ( 9/14) Accurately ripped
35 | ( 9/14) Accurately ripped
36 | ( 9/14) Accurately ripped
37 | ( 9/14) Accurately ripped
38 | ( 9/14) Accurately ripped
39 | ( 9/14) Accurately ripped
40 | ( 8/14) Accurately ripped


==== Log checksum 7AA9833CFED50159514FC62F6E552936E86242E5BC75A45F4A3F0F2F7FBC3215 ====


Exact Audio Copy V1.3 from 2. September 2016

EAC extraction logfile from 28. August 2019, 11:29

Musica Pacifica / Marais - Pièces en trio CD2

Used drive : HL-DT-STBD-RE WH16NS40 Adapter: 1 ID: 0

Read mode : Secure
Utilize accurate stream : Yes
Defeat audio cache : Yes
Make use of C2 pointers : No

Read offset correction : 6
Overread into Lead-In and Lead-Out : No
Fill up missing offset samples with silence : Yes
Delete leading and trailing silent blocks : No
Null samples used in CRC calculations : Yes
Used interface : Native Win32 interface for Win NT & 2000

Used output format : User Defined Encoder
Selected bitrate : 1024 kBit/s
Quality : High
Add ID3 tag : No
Command line compressor : C:\Program Files (x86)\Exact Audio Copy\FLAC\FLAC.EXE
Additional command line options : -6 -V -T "ARTIST=%artist%" -T "TITLE=%title%" -T "ALBUM=%albumtitle%" -T "DATE=%year%" -T "TRACKNUMBER=%tracknr%" -T "GENRE=%genre%" -T "COMMENT=%comment%" -T "BAND=%albuminterpret%" -T "ALBUMARTIST=%albuminterpret%" -T "COMPOSER=%composer%" %haslyrics%–tag-from-file=LYRICS="%lyricsfile%"%haslyrics% -T "DISCNUMBER=%cdnumber%" -T "TOTALDISCS=%totalcds%" -T "TOTALTRACKS=%numtracks%" %hascover%–picture="%coverfile%"%hascover% %source% -o %dest%


TOC of the extracted CD

Track | Start | Length | Start sector | End sector
––––––––––––––––––––––––––––-
1 | 0:00.00 | 2:00.12 | 0 | 9011
2 | 2:00.12 | 2:16.55 | 9012 | 19266
3 | 4:16.67 | 2:01.65 | 19267 | 28406
4 | 6:18.57 | 1:05.68 | 28407 | 33349
5 | 7:24.50 | 1:30.20 | 33350 | 40119
6 | 8:54.70 | 8:43.62 | 40120 | 79406
7 | 17:38.57 | 3:13.38 | 79407 | 93919
8 | 20:52.20 | 0:52.62 | 93920 | 97881
9 | 21:45.07 | 2:10.63 | 97882 | 107694
10 | 23:55.70 | 1:19.50 | 107695 | 113669
11 | 25:15.45 | 1:47.17 | 113670 | 121711
12 | 27:02.62 | 1:49.43 | 121712 | 129929
13 | 28:52.30 | 1:17.10 | 129930 | 135714
14 | 30:09.40 | 0:59.42 | 135715 | 140181
15 | 31:09.07 | 0:41.38 | 140182 | 143294
16 | 31:50.45 | 1:58.35 | 143295 | 152179
17 | 33:49.05 | 2:38.37 | 152180 | 164066
18 | 36:27.42 | 1:05.45 | 164067 | 168986
19 | 37:33.12 | 1:33.18 | 168987 | 175979
20 | 39:06.30 | 0:55.00 | 175980 | 180104
21 | 40:01.30 | 0:49.62 | 180105 | 183841
22 | 40:51.17 | 1:00.68 | 183842 | 188409
23 | 41:52.10 | 1:13.15 | 188410 | 193899
24 | 43:05.25 | 6:17.50 | 193900 | 222224
25 | 49:23.00 | 3:01.15 | 222225 | 235814
26 | 52:24.15 | 1:30.45 | 235815 | 242609
27 | 53:54.60 | 1:37.17 | 242610 | 249901
28 | 55:32.02 | 1:14.18 | 249902 | 255469
29 | 56:46.20 | 2:16.62 | 255470 | 265731
30 | 59:03.07 | 3:34.63 | 265732 | 281844


Range status and errors

Selected range

Filename C:\Users\Grant\Desktop\Musica Pacifica - Marais - Pièces en trio CD2.wav

Peak level 81.2 %
Extraction speed 7.8 X
Range quality 99.9 %
Test CRC AEFD0985
Copy CRC AEFD0985
Copy OK

No errors occurred


AccurateRip summary

Track 1 cannot be verified as accurate (confidence 4) [1DDE5533], AccurateRip returned [6F415B8C] (AR v2)
Track 2 cannot be verified as accurate (confidence 4) [CE25F809], AccurateRip returned [33C83120] (AR v2)
Track 3 cannot be verified as accurate (confidence 4) [878F977A], AccurateRip returned [FE48F19B] (AR v2)
Track 4 cannot be verified as accurate (confidence 4) [A0E6E147], AccurateRip returned [22D39164] (AR v2)
Track 5 cannot be verified as accurate (confidence 4) [4D5D777C], AccurateRip returned [7C047CDE] (AR v2)
Track 6 cannot be verified as accurate (confidence 4) [074ECFB6], AccurateRip returned [9A195228] (AR v2)
Track 7 cannot be verified as accurate (confidence 4) [9C7D4187], AccurateRip returned [4AF06CA1] (AR v2)
Track 8 cannot be verified as accurate (confidence 4) [B55F97B7], AccurateRip returned [10D70A97] (AR v2)
Track 9 cannot be verified as accurate (confidence 4) [ACAA4F52], AccurateRip returned [FD3AC7B7] (AR v2)
Track 10 cannot be verified as accurate (confidence 4) [1F0136E6], AccurateRip returned [632E6E0C] (AR v2)
Track 11 cannot be verified as accurate (confidence 4) [BB67876D], AccurateRip returned [3DC4F7CA] (AR v2)
Track 12 cannot be verified as accurate (confidence 4) [E40F9B82], AccurateRip returned [FE1D6103] (AR v2)
Track 13 cannot be verified as accurate (confidence 4) [7E5D4845], AccurateRip returned [958CB368] (AR v2)
Track 14 cannot be verified as accurate (confidence 4) [7718847E], AccurateRip returned [2A893D1F] (AR v2)
Track 15 cannot be verified as accurate (confidence 4) [F13A86DE], AccurateRip returned [34F88EFD] (AR v2)
Track 16 cannot be verified as accurate (confidence 4) [AEF4B015], AccurateRip returned [7BE8503C] (AR v2)
Track 17 cannot be verified as accurate (confidence 4) [A2BB1A99], AccurateRip returned [D3A25DE1] (AR v2)
Track 18 cannot be verified as accurate (confidence 4) [410060B3], AccurateRip returned [DE4D14B9] (AR v2)
Track 19 cannot be verified as accurate (confidence 4) [30145EAB], AccurateRip returned [8A4716D1] (AR v2)
Track 20 cannot be verified as accurate (confidence 4) [64DB202B], AccurateRip returned [2C66ABA3] (AR v2)
Track 21 cannot be verified as accurate (confidence 4) [94CE2EE4], AccurateRip returned [C331DEB4] (AR v2)
Track 22 cannot be verified as accurate (confidence 4) [CF31F93D], AccurateRip returned [5BB888B1] (AR v2)
Track 23 cannot be verified as accurate (confidence 4) [C944C6AA], AccurateRip returned [25ECCE57] (AR v2)
Track 24 cannot be verified as accurate (confidence 4) [BB1C2D31], AccurateRip returned [1FF8D59B] (AR v2)
Track 25 cannot be verified as accurate (confidence 4) [C0D66971], AccurateRip returned [50303A37] (AR v2)
Track 26 cannot be verified as accurate (confidence 4) [037434C3], AccurateRip returned [D806E2BC] (AR v2)
Track 27 cannot be verified as accurate (confidence 4) [8D63940E], AccurateRip returned [55937D24] (AR v2)
Track 28 cannot be verified as accurate (confidence 4) [6B370F4C], AccurateRip returned [1B7C8123] (AR v2)
Track 29 cannot be verified as accurate (confidence 4) [D965BB13], AccurateRip returned [B2A6007B] (AR v2)
Track 30 cannot be verified as accurate (confidence 4) [1F8F1630], AccurateRip returned [65C324A6] (AR v2)

No tracks could be verified as accurate
You may have a different pressing from the one(s) in the database

End of status report

–– CUETools DB Plugin V2.1.6

[CTDB TOCID: OhuYoOcrG8ARV1cJji2HEGJjfmk-] found
Submit result: OhuYoOcrG8ARV1cJji2HEGJjfmk- has been confirmed
Track | CTDB Status
1 | (11/13) Accurately ripped
2 | (11/13) Accurately ripped
3 | (11/13) Accurately ripped
4 | (11/13) Accurately ripped
5 | (11/13) Accurately ripped
6 | (11/13) Accurately ripped
7 | (11/13) Accurately ripped
8 | (11/13) Accurately ripped
9 | (11/13) Accurately ripped
10 | (11/13) Accurately ripped
11 | (11/13) Accurately ripped
12 | (11/13) Accurately ripped
13 | (11/13) Accurately ripped
14 | (11/13) Accurately ripped
15 | (11/13) Accurately ripped
16 | (11/13) Accurately ripped
17 | (11/13) Accurately ripped
18 | (11/13) Accurately ripped
19 | (11/13) Accurately ripped
20 | (11/13) Accurately ripped
21 | (11/13) Accurately ripped
22 | (11/13) Accurately ripped
23 | (11/13) Accurately ripped
24 | (11/13) Accurately ripped
25 | (11/13) Accurately ripped
26 | (11/13) Accurately ripped
27 | (11/13) Accurately ripped
28 | (11/13) Accurately ripped
29 | (11/13) Accurately ripped
30 | (11/13) Accurately ripped


==== Log checksum 7056400081E9D70D802794130DE145C7A7848C00EB07F747890862854E23A6DC ====

Musica Pacifica - Marin Marais: Pièces en Trio (1997)

Thanks to the original releaser