Tags
Language
Tags

Musik in Deutschland 1950-2000 - Solo und Klavier 1945-1970 (2001)

Posted By: basa005
Musik in Deutschland 1950-2000 - Solo und Klavier 1945-1970 (2001)

Musik in Deutschland 1950-2000 - Solo und Klavier 1945-1970 (2001)
EAC RIP | APE + CUE + LOG | COVER + BOOK | RAR FILES (3% recovery) | 263 Mb
Classical | BMG Classics 74321 73529 2

Musik in Deutschland 1950-2000 - Solo und Klavier 1945-1970 (2001)

Tracklist:
Wolfgang Fortner (1907-1987)
1. Songs nach Texten von William Shakespeare 1:40
2. Songs nach Texten von William Shakespeare 1:27
3. Songs nach Texten von William Shakespeare 0:53
4. Songs nach Texten von William Shakespeare 0:44
Paul Dessau (1894-1979)
5. Die Graugans 1:45
6. Fünf Kinderlieder nach Brecht 1:38
7. Fünf Kinderlieder nach Brecht 1:17
8. Fünf Kinderlieder nach Brecht 2:03
9. Fünf Kinderlieder nach Brecht 1:12
10. Fünf Kinderlieder nach Brecht 2:53
11. Vier Liebeslieder 0:53
12. Vier Liebeslieder 1:36
13. Fünf Lieder 1:36
14. Fünf Lieder 0:49
Hanns Eisler (1898-1962)
15. Von der Freundlichkeit der Welt 1:25
16. Wiener Lied 1:21
17. Verfehlte Liebe 1:08
18. Horations Monolog 1:18
Karl Amadeus Hartmann (1905-1963)
19. Lamento 9:29
Hermann Reutter (1909-1985)
20. Drei Lieder nach Gedichten von Friedrich Hölderlin op. 67 5:32
21. Drei Lieder nach Gedichten von Friedrich Hölderlin op. 67 2:26
Boris Blacher (1903-1975)
22. Aprèslude 2:00
23. Aprèslude 1:13
24. Aprèslude 1:08
25. Aprèslude 0:35
Giselher Klebe (1925)
26. Fünf Lieder op. 38 2:08
27. Fünf Lieder op. 38 6:02
Siegfried Matthus (1934)
28. Zwei Nachtlieder 1:36
29. Zwei Nachtlieder 2:36
Kurt Schwaen (1909)
30. Liebsame Beschäftigung 1:01
31. Liebsame Beschäftigung 1:26
32. Liebsame Beschäftigung 1:38
Rudolf Wagner-Régeny (1903-1969)
33. Dahinter wird Stille 1:20
34. Dahinter wird Stille 1:36
35. Dahinter wird Stille 3:17

Die Liedszene wird nach dem Zweiten Weltkrieg zunächst von der Generation der zwischen 1894 und 1909 geborenen Komponisten bestimmt, die zugleich als Lehrer der heranwachsenden Generation wirkten. Es gibt eine Vielfalt stilistischer Ausdrucksarten, die ihre Wurzeln zum Teil in den 1920er Jahren haben und Hinwendungen zur zwölftönigen Schreibweise winschließen. Der Unterschied zwischen den in der DDR und in der Bundesrepublik arbeitenden Komponisten liegt vor allem in der unterschiedlichen gesellschaftlichen Orientierung und der politischen Auffassung. Sie bestimmen die Wahl der Texte und haben auch Einfluss auf die Funktion der Lieder.


Exact Audio Copy V1.0 beta 2 from 29. April 2011

EAC extraction logfile from 10. November 2011, 15:29

Musik in Deutschland 1950-2000 / Solo und Klavier 1945-1970

Used drive : TSSTcorpCDDVDW SE-S204N Adapter: 2 ID: 0

Read mode : Secure
Utilize accurate stream : Yes
Defeat audio cache : Yes
Make use of C2 pointers : No

Read offset correction : 6
Overread into Lead-In and Lead-Out : No
Fill up missing offset samples with silence : Yes
Delete leading and trailing silent blocks : No
Null samples used in CRC calculations : No
Used interface : Native Win32 interface for Win NT & 2000

Used output format : Internal WAV Routines
Sample format : 44.100 Hz; 16 Bit; Stereo


TOC of the extracted CD

Track | Start | Length | Start sector | End sector
––––––––––––––––––––––––––––-
1 | 0:00.00 | 1:42.47 | 0 | 7696
2 | 1:42.47 | 1:30.09 | 7697 | 14455
3 | 3:12.56 | 0:56.74 | 14456 | 18729
4 | 4:09.55 | 0:50.04 | 18730 | 22483
5 | 4:59.59 | 1:50.27 | 22484 | 30760
6 | 6:50.11 | 1:41.66 | 30761 | 38401
7 | 8:32.02 | 1:20.57 | 38402 | 44458
8 | 9:52.59 | 2:07.02 | 44459 | 53985
9 | 11:59.61 | 1:14.26 | 53986 | 59561
10 | 13:14.12 | 2:56.60 | 59562 | 72821
11 | 16:10.72 | 0:54.65 | 72822 | 76936
12 | 17:05.62 | 1:42.36 | 76937 | 84622
13 | 18:48.23 | 1:39.43 | 84623 | 92090
14 | 20:27.66 | 0:56.14 | 92091 | 96304
15 | 21:24.05 | 1:28.42 | 96305 | 102946
16 | 22:52.47 | 1:24.09 | 102947 | 109255
17 | 24:16.56 | 1:09.49 | 109256 | 114479
18 | 25:26.30 | 1:23.73 | 114480 | 120777
19 | 26:50.28 | 9:36.58 | 120778 | 164035
20 | 36:27.11 | 5:34.00 | 164036 | 189085
21 | 42:01.11 | 2:33.04 | 189086 | 200564
22 | 44:34.15 | 2:02.65 | 200565 | 209779
23 | 46:37.05 | 1:15.29 | 209780 | 215433
24 | 47:52.34 | 1:11.05 | 215434 | 220763
25 | 49:03.39 | 0:41.43 | 220764 | 223881
26 | 49:45.07 | 2:11.00 | 223882 | 233706
27 | 51:56.07 | 6:08.54 | 233707 | 261360
28 | 58:04.61 | 1:15.36 | 261361 | 267021
29 | 59:20.22 | 1:55.36 | 267022 | 275682
30 | 61:15.58 | 1:02.65 | 275683 | 280397
31 | 62:18.48 | 1:28.40 | 280398 | 287037
32 | 63:47.13 | 1:44.57 | 287038 | 294894
33 | 65:31.70 | 1:21.49 | 294895 | 301018
34 | 66:53.44 | 1:36.73 | 301019 | 308291
35 | 68:30.42 | 3:17.03 | 308292 | 323069


Range status and errors

Selected range

Filename C:\avaxhome\Musik in Deutschland 1950-2000 - Solo und Klavier 1945-1970.wav

Peak level 79.3 %
Extraction speed 8.2 X
Range quality 100.0 %
Copy CRC 7E79A612
Copy OK

No errors occurred


AccurateRip summary

Track 1 cannot be verified as accurate (confidence 2) [2E0ECD63], AccurateRip returned [F3D6BDC7] (AR v2)
Track 2 cannot be verified as accurate (confidence 2) [8C28A095], AccurateRip returned [00070FD8] (AR v2)
Track 3 cannot be verified as accurate (confidence 2) [FCCF0E9B], AccurateRip returned [BF98EF21] (AR v2)
Track 4 cannot be verified as accurate (confidence 2) [2D868EC0], AccurateRip returned [C9775012] (AR v2)
Track 5 cannot be verified as accurate (confidence 2) [2C738D79], AccurateRip returned [4C3937F7] (AR v2)
Track 6 cannot be verified as accurate (confidence 2) [8CF7008D], AccurateRip returned [FE2E9EAF] (AR v2)
Track 7 cannot be verified as accurate (confidence 2) [FE3DEBEC], AccurateRip returned [66D2CAB1] (AR v2)
Track 8 cannot be verified as accurate (confidence 2) [5A1BC3DE], AccurateRip returned [627233A5] (AR v2)
Track 9 cannot be verified as accurate (confidence 2) [CE345BDA], AccurateRip returned [A88B590A] (AR v2)
Track 10 cannot be verified as accurate (confidence 2) [E48E4132], AccurateRip returned [C58CE1A8] (AR v2)
Track 11 cannot be verified as accurate (confidence 2) [FC2F0462], AccurateRip returned [354E3D10] (AR v2)
Track 12 cannot be verified as accurate (confidence 2) [46A86EF8], AccurateRip returned [5ACFB3ED] (AR v2)
Track 13 cannot be verified as accurate (confidence 2) [E53AF2FC], AccurateRip returned [EC4A7226] (AR v2)
Track 14 cannot be verified as accurate (confidence 2) [7B64A9C4], AccurateRip returned [668FACE6] (AR v2)
Track 15 cannot be verified as accurate (confidence 2) [AB7C99C2], AccurateRip returned [B0F06378] (AR v2)
Track 16 cannot be verified as accurate (confidence 2) [8C26CC52], AccurateRip returned [77321DA9] (AR v2)
Track 17 cannot be verified as accurate (confidence 2) [7D8B347C], AccurateRip returned [4EFEBD73] (AR v2)
Track 18 cannot be verified as accurate (confidence 2) [BE14E974], AccurateRip returned [65E414BA] (AR v2)
Track 19 cannot be verified as accurate (confidence 2) [6E85C178], AccurateRip returned [04F39E4E] (AR v2)
Track 20 cannot be verified as accurate (confidence 2) [875C77ED], AccurateRip returned [2FA30F47] (AR v2)
Track 21 cannot be verified as accurate (confidence 2) [C48F85F7], AccurateRip returned [605B0D60] (AR v2)
Track 22 cannot be verified as accurate (confidence 2) [296F0EB2], AccurateRip returned [175CDB05] (AR v2)
Track 23 cannot be verified as accurate (confidence 2) [193F8F5D], AccurateRip returned [0CED56A0] (AR v2)
Track 24 cannot be verified as accurate (confidence 2) [BA19B8FA], AccurateRip returned [B8C909C7] (AR v2)
Track 25 cannot be verified as accurate (confidence 2) [2BA9BF5B], AccurateRip returned [CFEBA25F] (AR v2)
Track 26 cannot be verified as accurate (confidence 2) [3C0BB8F5], AccurateRip returned [44BBF75B] (AR v2)
Track 27 cannot be verified as accurate (confidence 2) [D0B7DF17], AccurateRip returned [D87C6211] (AR v2)
Track 28 cannot be verified as accurate (confidence 2) [1B62AB71], AccurateRip returned [48CDBD13] (AR v2)
Track 29 cannot be verified as accurate (confidence 2) [F60F8D14], AccurateRip returned [3DF09316] (AR v2)
Track 30 cannot be verified as accurate (confidence 2) [1797C4FA], AccurateRip returned [D3335A91] (AR v2)
Track 31 cannot be verified as accurate (confidence 2) [9EAC949B], AccurateRip returned [2B768304] (AR v2)
Track 32 cannot be verified as accurate (confidence 2) [D8E1B120], AccurateRip returned [5BE09679] (AR v2)
Track 33 cannot be verified as accurate (confidence 2) [C340FE33], AccurateRip returned [E4C2F30D] (AR v2)
Track 34 cannot be verified as accurate (confidence 2) [870AA95B], AccurateRip returned [A2016D69] (AR v2)
Track 35 cannot be verified as accurate (confidence 2) [B1078E29], AccurateRip returned [7219FC5E] (AR v2)

No tracks could be verified as accurate
You may have a different pressing from the one(s) in the database

End of status report

==== Log checksum 18F1885CD1492C4B683DF324B4A1F0883D21C2BA9CB5B26FA95092D4183EFC9D ====