Tags
Language
Tags

Mystery - Caught In The Whirlwind Of Time (2020) [Blu-ray 1080i & BDRip 720p]

Posted By: v3122
Mystery - Caught In The Whirlwind Of Time (2020) [Blu-ray 1080i & BDRip 720p]

Mystery - Caught In The Whirlwind Of Time (2020)
Blu-ray: MPEG-4 AVC Video 1080i, 25 fps, 16:9, Main Profile 4.0
Dolby Digital 5.1, 48 kHz, 640 kbps / LPCM 2.0, 48 kHz, 1536 kbps, 16-bit
BDRip: MKV, AVC, 1280x720 (16:9), 25.000 fps, 6 300 kb/s
AC-3, 48.0 kHz, 6 ch, 640 kb/s / FLAC, 48.0 kHz, 2 ch, 953 kb/s
Symphonic Prog, Art-Rock | 02:48:42 | ~ 24.31 or 9.75 Gb

~ Recorded live at the Boerderij Cultuurpodium, Zoetermeer, Netherlands, November 17th 2018 ~

Mystery - Caught In The Whirlwind Of Time (2020):

Mystery - Caught In The Whirlwind Of Time (2020) [Blu-ray 1080i & BDRip 720p]

Tracklist:

01. Looking for Something Else
02. The Scarlet Eye
03. Come to Me
04. The Willow Tree
05. How Do You Feel?
06. Shadow of the Lake
07. Delusion Rain
08. Dare to Dream
09. Where Dreams Come Alive
10.The Sailor and the Mermaid
11.Wall Street King
12. Pride
13.Something to Believe In
14.Travel to the Night
15.A Song forYou
16.Chrysalis
17.The Preacher’s Fall

Disc Label: Mystery - Caught In The Whirlwind Of Time BD
Disc Size: 25,072,503,000 bytes
Protection: AACS
Extras: 50Hz Content
BDInfo: 0.7.5.5

Notes:

BDINFO HOME:
Cinema Squid (old)
http://www.cinemasquid.com/blu-ray/tools/bdinfo
UniqProject GitHub (new)
https://github.com/UniqProject/BDInfo

INCLUDES FORUMS REPORT FOR:
AVS Forum Blu-ray Audio and Video Specifications Thread
http://www.avsforum.com/avs-vb/showthread.php?t=1155731

WARNING: Report is incomplete because: Scan has not been run.

********************
PLAYLIST: 00006.MPLS
********************

<–- BEGIN FORUMS PASTE –->
                                                                                                                Total   Video                                             
Title                                                           Codec   Length  Movie Size      Disc Size       Bitrate Bitrate Main Audio Track                          Secondary Audio Track
-----                                                           ------  ------- --------------  --------------  ------- ------- ------------------                        ---------------------
00006.MPLS                                                      AVC     2:48:42 0               25,072,503,000  0.00    0.00    DD AC3 5.1 640Kbps                        LPCM 2.0 1536Kbps (48kHz/16-bit)


DISC INFO:

Disc Label:     Mystery - Caught In The Whirlwind Of Time BD
Disc Size:      25,072,503,000 bytes
Protection:     AACS
Extras:         50Hz Content
BDInfo:         0.7.5.5

PLAYLIST REPORT:

Name:                   00006.MPLS
Length:                 2:48:42.325 (h:m:s.ms)
Size:                   0 bytes
Total Bitrate:          0.00 Mbps

VIDEO:

Codec                   Bitrate             Description     
-----                   -------             -----------     
MPEG-4 AVC Video        0 kbps              1080i / 25 fps / 16:9 / Main Profile 4.0

AUDIO:

Codec                           Language        Bitrate         Description     
-----                           --------        -------         -----------     
Dolby Digital Audio             Undetermined    640 kbps        5.1 / 48 kHz /   640 kbps / DN -27dB
LPCM Audio                      Undetermined    1536 kbps       2.0 / 48 kHz /  1536 kbps / 16-bit

FILES:

Name            Time In         Length          Size            Total Bitrate   
----            -------         ------          ----            -------------   
00006.M2TS      0:00:00.000     2:48:42.325     0               0               

CHAPTERS:

Number          Time In         Length          Avg Video Rate  Max 1-Sec Rate  Max 1-Sec Time  Max 5-Sec Rate  Max 5-Sec Time  Max 10Sec Rate  Max 10Sec Time  Avg Frame Size  Max Frame Size  Max Frame Time  
------          -------         ------          --------------  --------------  --------------  --------------  --------------  --------------  --------------  --------------  --------------  --------------  
1               0:00:00.000     0:16:11.771     0 kbps          0 kbps          00:00:00.000    0 kbps          00:00:00.000    0 kbps          00:00:00.000    0 bytes         0 bytes         00:00:00.000    
2               0:16:11.771     0:05:40.607     0 kbps          0 kbps          00:00:00.000    0 kbps          00:00:00.000    0 kbps          00:00:00.000    0 bytes         0 bytes         00:00:00.000    
3               0:21:52.378     0:05:19.386     0 kbps          0 kbps          00:00:00.000    0 kbps          00:00:00.000    0 kbps          00:00:00.000    0 bytes         0 bytes         00:00:00.000    
4               0:27:11.764     0:17:43.096     0 kbps          0 kbps          00:00:00.000    0 kbps          00:00:00.000    0 kbps          00:00:00.000    0 bytes         0 bytes         00:00:00.000    
5               0:44:54.861     0:04:38.311     0 kbps          0 kbps          00:00:00.000    0 kbps          00:00:00.000    0 kbps          00:00:00.000    0 bytes         0 bytes         00:00:00.000    
6               0:49:33.172     0:13:24.871     0 kbps          0 kbps          00:00:00.000    0 kbps          00:00:00.000    0 kbps          00:00:00.000    0 bytes         0 bytes         00:00:00.000    
7               1:02:58.044     0:10:14.348     0 kbps          0 kbps          00:00:00.000    0 kbps          00:00:00.000    0 kbps          00:00:00.000    0 bytes         0 bytes         00:00:00.000    
8               1:13:12.392     0:06:28.689     0 kbps          0 kbps          00:00:00.000    0 kbps          00:00:00.000    0 kbps          00:00:00.000    0 bytes         0 bytes         00:00:00.000    
9               1:19:41.081     0:07:29.482     0 kbps          0 kbps          00:00:00.000    0 kbps          00:00:00.000    0 kbps          00:00:00.000    0 bytes         0 bytes         00:00:00.000    
10              1:27:10.563     0:04:57.797     0 kbps          0 kbps          00:00:00.000    0 kbps          00:00:00.000    0 kbps          00:00:00.000    0 bytes         0 bytes         00:00:00.000    
11              1:32:08.361     0:06:14.641     0 kbps          0 kbps          00:00:00.000    0 kbps          00:00:00.000    0 kbps          00:00:00.000    0 bytes         0 bytes         00:00:00.000    
12              1:38:23.002     0:07:21.574     0 kbps          0 kbps          00:00:00.000    0 kbps          00:00:00.000    0 kbps          00:00:00.000    0 bytes         0 bytes         00:00:00.000    
13              1:45:44.577     0:08:12.259     0 kbps          0 kbps          00:00:00.000    0 kbps          00:00:00.000    0 kbps          00:00:00.000    0 bytes         0 bytes         00:00:00.000    
14              1:53:56.836     0:09:10.550     0 kbps          0 kbps          00:00:00.000    0 kbps          00:00:00.000    0 kbps          00:00:00.000    0 bytes         0 bytes         00:00:00.000    
15              2:03:07.387     0:15:28.929     0 kbps          0 kbps          00:00:00.000    0 kbps          00:00:00.000    0 kbps          00:00:00.000    0 bytes         0 bytes         00:00:00.000    
16              2:18:36.316     0:16:32.992     0 kbps          0 kbps          00:00:00.000    0 kbps          00:00:00.000    0 kbps          00:00:00.000    0 bytes         0 bytes         00:00:00.000    
17              2:35:09.308     0:06:55.515     0 kbps          0 kbps          00:00:00.000    0 kbps          00:00:00.000    0 kbps          00:00:00.000    0 bytes         0 bytes         00:00:00.000    
18              2:42:04.824     0:06:37.501     0 kbps          0 kbps          00:00:00.000    0 kbps          00:00:00.000    0 kbps          00:00:00.000    0 bytes         0 bytes         00:00:00.000    

STREAM DIAGNOSTICS:

File            PID             Type            Codec           Language                Seconds                 Bitrate                 Bytes           Packets         
----            ---             ----            -----           --------                --------------          --------------          -------------   -----           
00006.M2TS      4113 (0x1011)   0x1B            AVC                                     0                       0                       0               0               
00006.M2TS      4352 (0x1100)   0x81            AC3             und (Undetermined)      0                       0                       0               0               
00006.M2TS      4353 (0x1101)   0x80            LPCM            und (Undetermined)      0                       0                       0               0               

<–– END FORUMS PASTE ––>

QUICK SUMMARY:

Disc Label: Mystery - Caught In The Whirlwind Of Time BD
Disc Size: 25,072,503,000 bytes
Protection: AACS
Playlist: 00006.MPLS
Size: 0 bytes
Length: 2:48:42.325
Total Bitrate: 0.00 Mbps
Video: MPEG-4 AVC Video / 0 kbps / 1080i / 25 fps / 16:9 / Main Profile 4.0
Audio: Undetermined / Dolby Digital Audio / 5.1 / 48 kHz / 640 kbps / DN -27dB
Audio: Undetermined / LPCM Audio / 2.0 / 48 kHz / 1536 kbps / 16-bit


********************
PLAYLIST: 00007.MPLS
********************

<–- BEGIN FORUMS PASTE –->
                                                                                                                Total   Video                                             
Title                                                           Codec   Length  Movie Size      Disc Size       Bitrate Bitrate Main Audio Track                          Secondary Audio Track
-----                                                           ------  ------- --------------  --------------  ------- ------- ------------------                        ---------------------
00007.MPLS                                                      AVC     2:48:42 0               25,072,503,000  0.00    0.00    DD AC3 5.1 640Kbps                        LPCM 2.0 1536Kbps (48kHz/16-bit)


DISC INFO:

Disc Label:     Mystery - Caught In The Whirlwind Of Time BD
Disc Size:      25,072,503,000 bytes
Protection:     AACS
Extras:         50Hz Content
BDInfo:         0.7.5.5

PLAYLIST REPORT:

Name:                   00007.MPLS
Length:                 2:48:42.325 (h:m:s.ms)
Size:                   0 bytes
Total Bitrate:          0.00 Mbps

VIDEO:

Codec                   Bitrate             Description     
-----                   -------             -----------     
MPEG-4 AVC Video        0 kbps              1080i / 25 fps / 16:9 / Main Profile 4.0

AUDIO:

Codec                           Language        Bitrate         Description     
-----                           --------        -------         -----------     
Dolby Digital Audio             Undetermined    640 kbps        5.1 / 48 kHz /   640 kbps / DN -27dB
LPCM Audio                      Undetermined    1536 kbps       2.0 / 48 kHz /  1536 kbps / 16-bit

FILES:

Name            Time In         Length          Size            Total Bitrate   
----            -------         ------          ----            -------------   
00006.M2TS      0:00:00.000     2:48:42.325     0               0               

CHAPTERS:

Number          Time In         Length          Avg Video Rate  Max 1-Sec Rate  Max 1-Sec Time  Max 5-Sec Rate  Max 5-Sec Time  Max 10Sec Rate  Max 10Sec Time  Avg Frame Size  Max Frame Size  Max Frame Time  
------          -------         ------          --------------  --------------  --------------  --------------  --------------  --------------  --------------  --------------  --------------  --------------  
1               0:00:00.000     0:16:11.771     0 kbps          0 kbps          00:00:00.000    0 kbps          00:00:00.000    0 kbps          00:00:00.000    0 bytes         0 bytes         00:00:00.000    
2               0:16:11.771     0:05:40.607     0 kbps          0 kbps          00:00:00.000    0 kbps          00:00:00.000    0 kbps          00:00:00.000    0 bytes         0 bytes         00:00:00.000    
3               0:21:52.379     0:05:19.386     0 kbps          0 kbps          00:00:00.000    0 kbps          00:00:00.000    0 kbps          00:00:00.000    0 bytes         0 bytes         00:00:00.000    
4               0:27:11.765     0:17:43.096     0 kbps          0 kbps          00:00:00.000    0 kbps          00:00:00.000    0 kbps          00:00:00.000    0 bytes         0 bytes         00:00:00.000    
5               0:44:54.861     0:04:38.311     0 kbps          0 kbps          00:00:00.000    0 kbps          00:00:00.000    0 kbps          00:00:00.000    0 bytes         0 bytes         00:00:00.000    
6               0:49:33.173     0:13:24.871     0 kbps          0 kbps          00:00:00.000    0 kbps          00:00:00.000    0 kbps          00:00:00.000    0 bytes         0 bytes         00:00:00.000    
7               1:02:58.044     0:10:14.347     0 kbps          0 kbps          00:00:00.000    0 kbps          00:00:00.000    0 kbps          00:00:00.000    0 bytes         0 bytes         00:00:00.000    
8               1:13:12.392     0:06:28.688     0 kbps          0 kbps          00:00:00.000    0 kbps          00:00:00.000    0 kbps          00:00:00.000    0 bytes         0 bytes         00:00:00.000    
9               1:19:41.081     0:07:29.482     0 kbps          0 kbps          00:00:00.000    0 kbps          00:00:00.000    0 kbps          00:00:00.000    0 bytes         0 bytes         00:00:00.000    
10              1:27:10.563     0:04:57.797     0 kbps          0 kbps          00:00:00.000    0 kbps          00:00:00.000    0 kbps          00:00:00.000    0 bytes         0 bytes         00:00:00.000    
11              1:32:08.361     0:06:14.641     0 kbps          0 kbps          00:00:00.000    0 kbps          00:00:00.000    0 kbps          00:00:00.000    0 bytes         0 bytes         00:00:00.000    
12              1:38:23.002     0:07:21.574     0 kbps          0 kbps          00:00:00.000    0 kbps          00:00:00.000    0 kbps          00:00:00.000    0 bytes         0 bytes         00:00:00.000    
13              1:45:44.577     0:08:12.258     0 kbps          0 kbps          00:00:00.000    0 kbps          00:00:00.000    0 kbps          00:00:00.000    0 bytes         0 bytes         00:00:00.000    
14              1:53:56.836     0:09:10.550     0 kbps          0 kbps          00:00:00.000    0 kbps          00:00:00.000    0 kbps          00:00:00.000    0 bytes         0 bytes         00:00:00.000    
15              2:03:07.387     0:15:28.928     0 kbps          0 kbps          00:00:00.000    0 kbps          00:00:00.000    0 kbps          00:00:00.000    0 bytes         0 bytes         00:00:00.000    
16              2:18:36.316     0:16:32.993     0 kbps          0 kbps          00:00:00.000    0 kbps          00:00:00.000    0 kbps          00:00:00.000    0 bytes         0 bytes         00:00:00.000    
17              2:35:09.309     0:06:55.515     0 kbps          0 kbps          00:00:00.000    0 kbps          00:00:00.000    0 kbps          00:00:00.000    0 bytes         0 bytes         00:00:00.000    
18              2:42:04.824     0:06:37.500     0 kbps          0 kbps          00:00:00.000    0 kbps          00:00:00.000    0 kbps          00:00:00.000    0 bytes         0 bytes         00:00:00.000    

STREAM DIAGNOSTICS:

File            PID             Type            Codec           Language                Seconds                 Bitrate                 Bytes           Packets         
----            ---             ----            -----           --------                --------------          --------------          -------------   -----           
00006.M2TS      4113 (0x1011)   0x1B            AVC                                     0                       0                       0               0               
00006.M2TS      4352 (0x1100)   0x81            AC3             und (Undetermined)      0                       0                       0               0               
00006.M2TS      4353 (0x1101)   0x80            LPCM            und (Undetermined)      0                       0                       0               0               

<–– END FORUMS PASTE ––>

QUICK SUMMARY:

Disc Label: Mystery - Caught In The Whirlwind Of Time BD
Disc Size: 25,072,503,000 bytes
Protection: AACS
Playlist: 00007.MPLS
Size: 0 bytes
Length: 2:48:42.325
Total Bitrate: 0.00 Mbps
Video: MPEG-4 AVC Video / 0 kbps / 1080i / 25 fps / 16:9 / Main Profile 4.0
Audio: Undetermined / Dolby Digital Audio / 5.1 / 48 kHz / 640 kbps / DN -27dB
Audio: Undetermined / LPCM Audio / 2.0 / 48 kHz / 1536 kbps / 16-bit


********************
PLAYLIST: 00004.MPLS
********************

<–- BEGIN FORUMS PASTE –->
                                                                                                                Total   Video                                             
Title                                                           Codec   Length  Movie Size      Disc Size       Bitrate Bitrate Main Audio Track                          Secondary Audio Track
-----                                                           ------  ------- --------------  --------------  ------- ------- ------------------                        ---------------------
00004.MPLS                                                      AVC     0:07:55 0               25,072,503,000  0.00    0.00    DD AC3 5.1 448Kbps                        


DISC INFO:

Disc Label:     Mystery - Caught In The Whirlwind Of Time BD
Disc Size:      25,072,503,000 bytes
Protection:     AACS
Extras:         50Hz Content
BDInfo:         0.7.5.5

PLAYLIST REPORT:

Name:                   00004.MPLS
Length:                 0:07:55.759 (h:m:s.ms)
Size:                   0 bytes
Total Bitrate:          0.00 Mbps

VIDEO:

Codec                   Bitrate             Description     
-----                   -------             -----------     
MPEG-4 AVC Video        0 kbps              1080i / 25 fps / 16:9 / Main Profile 4.0

AUDIO:

Codec                           Language        Bitrate         Description     
-----                           --------        -------         -----------     
Dolby Digital Audio             Undetermined    448 kbps        5.1 / 48 kHz /   448 kbps / DN -31dB

FILES:

Name            Time In         Length          Size            Total Bitrate   
----            -------         ------          ----            -------------   
00004.M2TS      0:00:00.000     0:07:55.759     0               0               

CHAPTERS:

Number          Time In         Length          Avg Video Rate  Max 1-Sec Rate  Max 1-Sec Time  Max 5-Sec Rate  Max 5-Sec Time  Max 10Sec Rate  Max 10Sec Time  Avg Frame Size  Max Frame Size  Max Frame Time  
------          -------         ------          --------------  --------------  --------------  --------------  --------------  --------------  --------------  --------------  --------------  --------------  
1               0:00:00.000     0:07:55.759     0 kbps          0 kbps          00:00:00.000    0 kbps          00:00:00.000    0 kbps          00:00:00.000    0 bytes         0 bytes         00:00:00.000    

STREAM DIAGNOSTICS:

File            PID             Type            Codec           Language                Seconds                 Bitrate                 Bytes           Packets         
----            ---             ----            -----           --------                --------------          --------------          -------------   -----           
00004.M2TS      4113 (0x1011)   0x1B            AVC                                     0                       0                       0               0               
00004.M2TS      4352 (0x1100)   0x81            AC3             und (Undetermined)      0                       0                       0               0               

<–– END FORUMS PASTE ––>

QUICK SUMMARY:

Disc Label: Mystery - Caught In The Whirlwind Of Time BD
Disc Size: 25,072,503,000 bytes
Protection: AACS
Playlist: 00004.MPLS
Size: 0 bytes
Length: 0:07:55.759
Total Bitrate: 0.00 Mbps
Video: MPEG-4 AVC Video / 0 kbps / 1080i / 25 fps / 16:9 / Main Profile 4.0
Audio: Undetermined / Dolby Digital Audio / 5.1 / 48 kHz / 448 kbps / DN -31dB


********************
PLAYLIST: 00003.MPLS
********************

<–- BEGIN FORUMS PASTE –->
                                                                                                                Total   Video                                             
Title                                                           Codec   Length  Movie Size      Disc Size       Bitrate Bitrate Main Audio Track                          Secondary Audio Track
-----                                                           ------  ------- --------------  --------------  ------- ------- ------------------                        ---------------------
00003.MPLS                                                      AVC     0:06:28 0               25,072,503,000  0.00    0.00    DD AC3 5.1 448Kbps                        


DISC INFO:

Disc Label:     Mystery - Caught In The Whirlwind Of Time BD
Disc Size:      25,072,503,000 bytes
Protection:     AACS
Extras:         50Hz Content
BDInfo:         0.7.5.5

PLAYLIST REPORT:

Name:                   00003.MPLS
Length:                 0:06:28.799 (h:m:s.ms)
Size:                   0 bytes
Total Bitrate:          0.00 Mbps

VIDEO:

Codec                   Bitrate             Description     
-----                   -------             -----------     
MPEG-4 AVC Video        0 kbps              1080i / 25 fps / 16:9 / Main Profile 4.0

AUDIO:

Codec                           Language        Bitrate         Description     
-----                           --------        -------         -----------     
Dolby Digital Audio             Undetermined    448 kbps        5.1 / 48 kHz /   448 kbps / DN -31dB

FILES:

Name            Time In         Length          Size            Total Bitrate   
----            -------         ------          ----            -------------   
00003.M2TS      0:00:00.000     0:06:28.799     0               0               

CHAPTERS:

Number          Time In         Length          Avg Video Rate  Max 1-Sec Rate  Max 1-Sec Time  Max 5-Sec Rate  Max 5-Sec Time  Max 10Sec Rate  Max 10Sec Time  Avg Frame Size  Max Frame Size  Max Frame Time  
------          -------         ------          --------------  --------------  --------------  --------------  --------------  --------------  --------------  --------------  --------------  --------------  
1               0:00:00.000     0:00:03.837     0 kbps          0 kbps          00:00:00.000    0 kbps          00:00:00.000    0 kbps          00:00:00.000    0 bytes         0 bytes         00:00:00.000    
2               0:00:03.837     0:06:24.962     0 kbps          0 kbps          00:00:00.000    0 kbps          00:00:00.000    0 kbps          00:00:00.000    0 bytes         0 bytes         00:00:00.000    

STREAM DIAGNOSTICS:

File            PID             Type            Codec           Language                Seconds                 Bitrate                 Bytes           Packets         
----            ---             ----            -----           --------                --------------          --------------          -------------   -----           
00003.M2TS      4113 (0x1011)   0x1B            AVC                                     0                       0                       0               0               
00003.M2TS      4352 (0x1100)   0x81            AC3             und (Undetermined)      0                       0                       0               0               

<–– END FORUMS PASTE ––>

QUICK SUMMARY:

Disc Label: Mystery - Caught In The Whirlwind Of Time BD
Disc Size: 25,072,503,000 bytes
Protection: AACS
Playlist: 00003.MPLS
Size: 0 bytes
Length: 0:06:28.799
Total Bitrate: 0.00 Mbps
Video: MPEG-4 AVC Video / 0 kbps / 1080i / 25 fps / 16:9 / Main Profile 4.0
Audio: Undetermined / Dolby Digital Audio / 5.1 / 48 kHz / 448 kbps / DN -31dB


********************
PLAYLIST: 00001.MPLS
********************

<–- BEGIN FORUMS PASTE –->
                                                                                                                Total   Video                                             
Title                                                           Codec   Length  Movie Size      Disc Size       Bitrate Bitrate Main Audio Track                          Secondary Audio Track
-----                                                           ------  ------- --------------  --------------  ------- ------- ------------------                        ---------------------
00001.MPLS                                                      AVC     0:00:59 0               25,072,503,000  0.00    0.00    DD AC3 5.1 448Kbps                        


DISC INFO:

Disc Label:     Mystery - Caught In The Whirlwind Of Time BD
Disc Size:      25,072,503,000 bytes
Protection:     AACS
Extras:         50Hz Content
BDInfo:         0.7.5.5

PLAYLIST REPORT:

Name:                   00001.MPLS
Length:                 0:00:59.999 (h:m:s.ms)
Size:                   0 bytes
Total Bitrate:          0.00 Mbps

VIDEO:

Codec                   Bitrate             Description     
-----                   -------             -----------     
MPEG-4 AVC Video        0 kbps              1080i / 25 fps / 16:9 / Main Profile 4.0

AUDIO:

Codec                           Language        Bitrate         Description     
-----                           --------        -------         -----------     
Dolby Digital Audio             Undetermined    448 kbps        5.1 / 48 kHz /   448 kbps / DN -31dB

SUBTITLES:

Codec                           Language        Bitrate         Description     
-----                           --------        -------         -----------     
Interactive Graphics            Undetermined    0.000 kbps                      

FILES:

Name            Time In         Length          Size            Total Bitrate   
----            -------         ------          ----            -------------   
00001.M2TS      0:00:00.000     0:00:59.999     0               0               

CHAPTERS:

Number          Time In         Length          Avg Video Rate  Max 1-Sec Rate  Max 1-Sec Time  Max 5-Sec Rate  Max 5-Sec Time  Max 10Sec Rate  Max 10Sec Time  Avg Frame Size  Max Frame Size  Max Frame Time  
------          -------         ------          --------------  --------------  --------------  --------------  --------------  --------------  --------------  --------------  --------------  --------------  
1               0:00:00.000     0:00:59.999     0 kbps          0 kbps          00:00:00.000    0 kbps          00:00:00.000    0 kbps          00:00:00.000    0 bytes         0 bytes         00:00:00.000    

STREAM DIAGNOSTICS:

File            PID             Type            Codec           Language                Seconds                 Bitrate                 Bytes           Packets         
----            ---             ----            -----           --------                --------------          --------------          -------------   -----           
00001.M2TS      4113 (0x1011)   0x1B            AVC                                     0                       0                       0               0               
00001.M2TS      4352 (0x1100)   0x81            AC3             und (Undetermined)      0                       0                       0               0               
00001.M2TS      5120 (0x1400)   0x91            IGS             und (Undetermined)      0                       0                       0               0               

<–– END FORUMS PASTE ––>

QUICK SUMMARY:

Disc Label: Mystery - Caught In The Whirlwind Of Time BD
Disc Size: 25,072,503,000 bytes
Protection: AACS
Playlist: 00001.MPLS
Size: 0 bytes
Length: 0:00:59.999
Total Bitrate: 0.00 Mbps
Video: MPEG-4 AVC Video / 0 kbps / 1080i / 25 fps / 16:9 / Main Profile 4.0
Audio: Undetermined / Dolby Digital Audio / 5.1 / 48 kHz / 448 kbps / DN -31dB
Subtitle: Undetermined / 0.000 kbps


********************
PLAYLIST: 00005.MPLS
********************

<–- BEGIN FORUMS PASTE –->
                                                                                                                Total   Video                                             
Title                                                           Codec   Length  Movie Size      Disc Size       Bitrate Bitrate Main Audio Track                          Secondary Audio Track
-----                                                           ------  ------- --------------  --------------  ------- ------- ------------------                        ---------------------
00005.MPLS                                                      AVC     0:00:59 0               25,072,503,000  0.00    0.00    DD AC3 5.1 448Kbps                        


DISC INFO:

Disc Label:     Mystery - Caught In The Whirlwind Of Time BD
Disc Size:      25,072,503,000 bytes
Protection:     AACS
Extras:         50Hz Content
BDInfo:         0.7.5.5

PLAYLIST REPORT:

Name:                   00005.MPLS
Length:                 0:00:59.999 (h:m:s.ms)
Size:                   0 bytes
Total Bitrate:          0.00 Mbps

VIDEO:

Codec                   Bitrate             Description     
-----                   -------             -----------     
MPEG-4 AVC Video        0 kbps              1080i / 25 fps / 16:9 / Main Profile 4.0

AUDIO:

Codec                           Language        Bitrate         Description     
-----                           --------        -------         -----------     
Dolby Digital Audio             Undetermined    448 kbps        5.1 / 48 kHz /   448 kbps / DN -31dB

SUBTITLES:

Codec                           Language        Bitrate         Description     
-----                           --------        -------         -----------     
Interactive Graphics            Undetermined    0.000 kbps                      

FILES:

Name            Time In         Length          Size            Total Bitrate   
----            -------         ------          ----            -------------   
00005.M2TS      0:00:00.000     0:00:59.999     0               0               

CHAPTERS:

Number          Time In         Length          Avg Video Rate  Max 1-Sec Rate  Max 1-Sec Time  Max 5-Sec Rate  Max 5-Sec Time  Max 10Sec Rate  Max 10Sec Time  Avg Frame Size  Max Frame Size  Max Frame Time  
------          -------         ------          --------------  --------------  --------------  --------------  --------------  --------------  --------------  --------------  --------------  --------------  
1               0:00:00.000     0:00:59.999     0 kbps          0 kbps          00:00:00.000    0 kbps          00:00:00.000    0 kbps          00:00:00.000    0 bytes         0 bytes         00:00:00.000    

STREAM DIAGNOSTICS:

File            PID             Type            Codec           Language                Seconds                 Bitrate                 Bytes           Packets         
----            ---             ----            -----           --------                --------------          --------------          -------------   -----           
00005.M2TS      4113 (0x1011)   0x1B            AVC                                     0                       0                       0               0               
00005.M2TS      4352 (0x1100)   0x81            AC3             und (Undetermined)      0                       0                       0               0               
00005.M2TS      5120 (0x1400)   0x91            IGS             und (Undetermined)      0                       0                       0               0               

<–– END FORUMS PASTE ––>

QUICK SUMMARY:

Disc Label: Mystery - Caught In The Whirlwind Of Time BD
Disc Size: 25,072,503,000 bytes
Protection: AACS
Playlist: 00005.MPLS
Size: 0 bytes
Length: 0:00:59.999
Total Bitrate: 0.00 Mbps
Video: MPEG-4 AVC Video / 0 kbps / 1080i / 25 fps / 16:9 / Main Profile 4.0
Audio: Undetermined / Dolby Digital Audio / 5.1 / 48 kHz / 448 kbps / DN -31dB
Subtitle: Undetermined / 0.000 kbps


********************
PLAYLIST: 00002.MPLS
********************

<–- BEGIN FORUMS PASTE –->
                                                                                                                Total   Video                                             
Title                                                           Codec   			  			 	   			 	  		  		  		  		  		  		  		  		   			 	   		  		  	 			   		  	   		  		  			     	 			   		 			  		  	   	 			   		   	  		  	   		  	 			 Length  Movie Size      Disc Size       Bitrate Bitrate Main Audio Track                          Secondary Audio Track
-----                                                           ------  ------- --------------  --------------  ------- ------- ------------------                        ---------------------
00002.MPLS                                                      AVC     0:00:52 0               25,072,503,000  0.00    0.00    DD AC3 5.1 448Kbps                        


DISC INFO:

Disc Label:     Mystery - Caught In The Whirlwind Of Time BD
Disc Size:      25,072,503,000 bytes
Protection:     AACS
Extras:         50Hz Content
BDInfo:         0.7.5.5

PLAYLIST REPORT:

Name:                   00002.MPLS
Length:                 0:00:52.607 (h:m:s.ms)
Size:                   0 bytes
Total Bitrate:          0.00 Mbps

VIDEO:

Codec                   Bitrate             Description     
-----                   -------             -----------     
MPEG-4 AVC Video        0 kbps              1080i / 25 fps / 16:9 / Main Profile 4.0

AUDIO:

Codec                           Language        Bitrate         Description     
-----                           --------        -------         -----------     
Dolby Digital Audio             Undetermined    448 kbps        5.1 / 48 kHz /   448 kbps / DN -31dB

SUBTITLES:

Codec                           Language        Bitrate         Description     
-----                           --------        -------         -----------     
Interactive Graphics            Undetermined    0.000 kbps                      

FILES:

Name            Time In         Length          Size            Total Bitrate   
----            -------         ------          ----            -------------   
00002.M2TS      0:00:00.000     0:00:52.607     0               0               

CHAPTERS:

Number          Time In         Length          Avg Video Rate  Max 1-Sec Rate  Max 1-Sec Time  Max 5-Sec Rate  Max 5-Sec Time  Max 10Sec Rate  Max 10Sec Time  Avg Frame Size  Max Frame Size  Max Frame Time  
------          -------         ------          --------------  --------------  --------------  --------------  --------------  --------------  --------------  --------------  --------------  --------------  
1               0:00:00.000     0:00:52.607     0 kbps          0 kbps          00:00:00.000    0 kbps          00:00:00.000    0 kbps          00:00:00.000    0 bytes         0 bytes         00:00:00.000    

STREAM DIAGNOSTICS:

File            PID             Type            Codec           Language                Seconds                 Bitrate                 Bytes           Packets         
----            ---             ----            -----           --------                --------------          --------------          -------------   -----           
00002.M2TS      4113 (0x1011)   0x1B            AVC                                     0                       0                       0               0               
00002.M2TS      4352 (0x1100)   0x81            AC3             und (Undetermined)      0                       0                       0               0               
00002.M2TS      5120 (0x1400)   0x91            IGS             und (Undetermined)      0                       0                       0               0               

<–– END FORUMS PASTE ––>

QUICK SUMMARY:

Disc Label: Mystery - Caught In The Whirlwind Of Time BD
Disc Size: 25,072,503,000 bytes
Protection: AACS
Playlist: 00002.MPLS
Size: 0 bytes
Length: 0:00:52.607
Total Bitrate: 0.00 Mbps
Video: MPEG-4 AVC Video / 0 kbps / 1080i / 25 fps / 16:9 / Main Profile 4.0
Audio: Undetermined / Dolby Digital Audio / 5.1 / 48 kHz / 448 kbps / DN -31dB
Subtitle: Undetermined / 0.000 kbps



General
Unique ID : 327245176888087634954985893859715331507 (0xF63120E781A03984901C25D9887A35B3)
Complete name : F:\Mix\Mystery - Caught In The Whirlwind Of Time\Mystery - Caught In The Whirlwind Of Time.BDRip720p.mkv
Format : Matroska
Format version : Version 4 / Version 2
File size : 9.30 GiB
Duration : 2h 48mn
Overall bit rate mode : Variable
Overall bit rate : 7 895 Kbps
Movie name : Mystery - Caught In The Whirlwind Of Time.BDRip720p @ rutracker.org
Encoded date : UTC 2021-01-18 12:35:06
Writing application : mkvmerge v50.0.0 ('Awakenings') 64-bit
Writing library : libebml v1.4.0 + libmatroska v1.6.2
DURATION : 02:48:42.304000000
NUMBER_OF_FRAMES : 316322
NUMBER_OF_BYTES : 809784320
_STATISTICS_WRITING_APP : mkvmerge v50.0.0 ('Awakenings') 64-bit
_STATISTICS_WRITING_DATE_UTC : 2021-01-18 12:35:06
_STATISTICS_TAGS : BPS DURATION NUMBER_OF_FRAMES NUMBER_OF_BYTES

Video
ID : 1
Format : AVC
Format/Info : Advanced Video Codec
Format profile : High@L4.1
Format settings, CABAC : Yes
Format settings, ReFrames : 9 frames
Codec ID : V_MPEG4/ISO/AVC
Duration : 2h 48mn
Nominal bit rate : 6 300 Kbps
Width : 1 280 pixels
Height : 720 pixels
Display aspect ratio : 16:9
Frame rate mode : Constant
Frame rate : 25.000 fps
Color space : YUV
Chroma subsampling : 4:2:0
Bit depth : 8 bits
Scan type : Progressive
Bits/(Pixel*Frame) : 0.273
Title : anbelk27 @ rutracker.org
Writing library : x264 core 157 r2969 d4099dd
Encoding settings : cabac=1 / ref=9 / deblock=1:-3:-3 / analyse=0x3:0x133 / me=tesa / subme=11 / psy=1 / psy_rd=1.13:0.07 / mixed_ref=1 / me_range=36 / chroma_me=1 / trellis=2 / 8x8dct=1 / cqm=0 / deadzone=21,11 / fast_pskip=1 / chroma_qp_offset=-3 / threads=12 / lookahead_threads=2 / sliced_threads=0 / nr=0 / decimate=1 / interlaced=0 / bluray_compat=0 / constrained_intra=0 / bframes=7 / b_pyramid=2 / b_adapt=2 / b_bias=0 / direct=3 / weightb=1 / open_gop=0 / weightp=2 / keyint=250 / keyint_min=25 / scenecut=40 / intra_refresh=0 / rc_lookahead=80 / rc=2pass / mbtree=1 / bitrate=6300 / ratetol=1.0 / qcomp=0.60 / qpmin=0 / qpmax=69 / qpstep=4 / cplxblur=20.0 / qblur=0.5 / vbv_maxrate=50000 / vbv_bufsize=62500 / nal_hrd=none / filler=0 / ip_ratio=1.40 / aq=1:1.00
Default : Yes
Forced : No

Audio #1
ID : 2
Format : AC-3
Format/Info : Audio Coding 3
Mode extension : CM (complete main)
Format settings, Endianness : Big
Codec ID : A_AC3
Duration : 2h 48mn
Bit rate mode : Constant
Bit rate : 640 Kbps
Channel(s) : 6 channels
Channel positions : Front: L C R, Side: L R, LFE
Sampling rate : 48.0 KHz
Bit depth : 16 bits
Compression mode : Lossy
Stream size : 772 MiB (8%)
Title : AC3 5.1 @ 16 bit
Default : Yes
Forced : No

Audio #2
ID : 3
Format : FLAC
Format/Info : Free Lossless Audio Codec
Codec ID : A_FLAC
Duration : 2h 48mn
Bit rate mode : Variable
Channel(s) : 2 channels
Sampling rate : 48.0 KHz
Bit depth : 16 bits
Title : FLAC 2.0 @ 16 bit
Writing library : libFLAC 1.2.1 (UTC 2007-09-17)
Default : No
Forced : No

Menu
00:00:00.000 : en: 01. Looking for Something Else
00:16:11.772 : en: 02. The Scarlet Eye
00:21:52.379 : en: 03. Come to Me
00:27:11.765 : en: 04. The Willow Tree
00:44:54.862 : en: 05. How Do You Feel?
00:49:33.173 : en: 06. Shadow of the Lake
01:02:58.045 : en: 07. Delusion Rain
01:13:12.392 : en: 08. Dare to Dream
01:19:41.081 : en: 09. Where Dreams Come Alive
01:27:10.564 : en: 10. The Sailor and the Mermaid
01:32:08.362 : en: 11. Wall Street King
01:38:23.003 : en: 12. Pride
01:45:44.578 : en: 13. Something to Believe In
01:53:56.837 : en: 14. Travel to the Night
02:03:07.387 : en: 15. A Song forYou
02:18:36.316 : en: 16. Chrysalis
02:35:09.309 : en: 17. The Preacher’s Fall
02:42:04.825 : en: 18. End Credits



Mystery - Caught In The Whirlwind Of Time (2020) [Blu-ray 1080i & BDRip 720p]

Mystery - Caught In The Whirlwind Of Time (2020) [Blu-ray 1080i & BDRip 720p]

Mystery - Caught In The Whirlwind Of Time (2020) [Blu-ray 1080i & BDRip 720p]

Mystery - Caught In The Whirlwind Of Time (2020) [Blu-ray 1080i & BDRip 720p]

Mystery - Caught In The Whirlwind Of Time (2020) [Blu-ray 1080i & BDRip 720p]

All thanks go to the original releaser

Mystery in my Blog

Download Mystery - Caught In The Whirlwind Of Time (2020):