Subcategories
Tags
Language
Tags

VA - Nostalgia Italiana: 20 Top Twenty Hits 1964 (1996) {BMG}

Posted By: TestTickles
VA - Nostalgia Italiana: 20 Top Twenty Hits 1964 (1996) {BMG}

VA - Nostalgia Italiana: 20 Top Twenty Hits 1964 (1996) {BMG}
EAC Rip | FLAC with CUE and LOG | scans | 333 mb
Genre: pop, chanson

Nostalgia Italiana: 20 Top Twenty Hits 1964 is a 1996 compilation honoring the wonderful pop music of Italy that was 1964. This was released by BMG.

(If you would like this compact disc as MP3 files, along with other volumes in the series as MP3's, please click here.)

01. Edoardo Vianello - Oh Mio Signore
02. Rita Pavone - Che M'importa Del Mondo
03. Gianni Morandi - In Ginocchio Da Te
04. Neil Sedaka - La Notte e Fatta Per Amare
05. Little Tony - Quando Vedrai La Mia Ragazza
06. Los Marcellos Ferial - Sei Diventata Nera
07. Nico Fidenco - Con Te Sulla Spiaggia
08. Rita Pavone - Scrivi!
09. Little Tony - Non Aspetto Nessuno
10. Bobby Solo - Credi a Me
11. Francoise Hardy - L'amour S'en Va
12. Gianni Morandi - Non Son Degno Di Te
13. Ornella Vanoni - Tu Si' 'na Cosa Grande
14. Bobby Solo - Una Lacrima Sul Viso
15. Catherine Spaak - Mes Amis, Mes Copains
16. Sergio Endrigo - Ti Amo
17. Rita Pavone - Ti Vorrei Parlare
18. Lando Fiorini - Roma Nun Fa La Stupida Stasera…
19. Edoardo Vianello - Le Tue Nozze
20. Paul Anka - Ogni Volta

Exact Audio Copy V0.99 prebeta 5 from 4. May 2009

Отчёт EAC об извлечении, выполненном 10. ноябрь 2009, 11:54

Various / Nostalgia Italiana: 20 Top Twenty Hits 1964

Дисковод: HL-DT-STDVDRAM GSA-H42N Adapter: 0 ID: 0

Режим чтения : Достоверность
Использование точного потока : Да
Отключение кэша аудио : Да
Использование указателей C2 : Нет

Коррекция смещения при чтении : 48
Способность читать области Lead-in и Lead-out : Нет
Заполнение пропущенных сэмплов тишиной : Да
Удаление блоков с тишиной в начале и конце : Нет
При вычислениях CRC использовались нулевые сэмплы : Да
Интерфейс : Встроенный Win32-интерфейс для Win NT/2000

Выходной формат : Внутренние WAV-операции
Формат сэмплов : 44.100 Гц; 16 бит; стерео

TOC извлечённого CD

Трек | Старт | Длительность | Начальный сектор | Конечный сектор
––––––––––––––––––––––––––––––––––-
1 | 0:00.00 | 3:34.27 | 0 | 16076
2 | 3:34.27 | 2:25.15 | 16077 | 26966
3 | 5:59.42 | 3:11.20 | 26967 | 41311
4 | 9:10.62 | 2:50.45 | 41312 | 54106
5 | 12:01.32 | 2:41.50 | 54107 | 66231
6 | 14:43.07 | 3:07.65 | 66232 | 80321
7 | 17:50.72 | 2:40.10 | 80322 | 92331
8 | 20:31.07 | 2:33.00 | 92332 | 103806
9 | 23:04.07 | 2:54.23 | 103807 | 116879
10 | 25:58.30 | 2:41.55 | 116880 | 129009
11 | 28:40.10 | 2:49.37 | 129010 | 141721
12 | 31:29.47 | 3:03.30 | 141722 | 155476
13 | 34:33.02 | 3:39.58 | 155477 | 171959
14 | 38:12.60 | 3:08.57 | 171960 | 186116
15 | 41:21.42 | 2:19.38 | 186117 | 196579
16 | 43:41.05 | 2:17.42 | 196580 | 206896
17 | 45:58.47 | 2:01.38 | 206897 | 216009
18 | 48:00.10 | 2:43.65 | 216010 | 228299
19 | 50:44.00 | 2:09.67 | 228300 | 238041
20 | 52:53.67 | 2:24.05 | 238042 | 248846

Характеристики диапазона извлечения и сообщения об ошибках

Выбранный диапазон

Имя файла C:\cuntfist\FLAC\VA - Nostalgia Italiana, 20 Top Twenty Hits 1964 (1996) [FLAC] {BMG}\Various - Nostalgia Italiana, 20 Top Twenty Hits 1964.wav

Пиковый уровень 100.0 %
Качество диапазона 99.9 %
CRC копии D0E703B8
Копирование… OK

Ошибок не произошло

Конец отчёта


VA - Nostalgia Italiana: 20 Top Twenty Hits 1964 (1996) {BMG}


Thank you to the original uploader.