Subcategories
Tags
Language
Tags

Nat King Cole - The Greatest Hits (1994) [DCC, GZS-1127] Re-up

Posted By: v3122
Nat King Cole - The Greatest Hits (1994) [DCC, GZS-1127] Re-up

Nat King Cole - The Greatest Hits (1994)
EAC | Flac(Image) + Cue + Log & MP3 CBR 320Kbps
1998 | DCC, GZS-1127 | ~ 368 or 158 Mb | Covers(jpg) Included
Pop, Jazz, Vocal, Swing

For all the resurgence in interest in Nat King Cole since 1991, when his daughter Natalie recorded a duet patching her new vocal with his from 40 years earlier and scored a gold-selling hit, Capitol Records lacked a single-disc hits collection that covered Cole's most successful singles for the label. This 22-track, 62-plus minute CD/cassette collection does the trick. Cole scored 21 Top Ten hits between 1944 and 1963, and 19 of them are here, from "Straighten Up and Fly Right" to "Those Lazy-Hazy-Crazy Days of Summer." The only ones missing are seasonal hits, "The Christmas Song" and "Frosty the Snow Man." In their places, you get the original and later versions of "Unforgettable" (neither of which, as it happens, quite made the Top Ten). You also get Cole's four number one songs, "Mona Lisa," "Nature Boy," "(I Love You) For Sentimental Reasons," and "Too Young," along with such memorable tunes as "Walkin' My Baby Back Home," "Smile," and "(Get Your Kicks On) Route 66." The non-chronological sequencing emphasizes the stylistic and qualitative consistency of Cole's work; it doesn't much matter if you juxtapose a song recorded in the '40s ("Nature Boy") against one recorded in the '60s ("Ramblin' Rose"), because you still get the same warmth and assurance in Cole's singing and the same tastefulness in the arrangements. One might have hoped for more in the way of packaging (there are no liner notes), but this is the single album to buy to hear Nat King Cole's best-known vocal performances.

by William Ruhlmann, allmusic
Nat King Cole - The Greatest Hits (1994):

Nat King Cole - The Greatest Hits (1994) [DCC, GZS-1127] Re-up

Tracklist:

01. Unforgettable [3:28]
02. (Get Your Kicks On) Route 66 [3:01]
03. Orange Colored Sky [2:37]
04. Mona Lisa [3:30]
05. Walkin' My Baby Back Home [2:45]
06. Straighten Up and Fly Right [2:44]
07. Send for Me [2:32]
08. Looking Back [2:31]
09. You Call It Madness (But I Call It Love) [3:08]
10. (I Love You) For Sentimental Reasons [3:10]
11. Nature Boy [2:58]
12. Ramblin' Rose [2:54]
13. Pretend [2:50]
14. Too Young [3:28]
15. Somewhere Along the Way [3:04]
16. Those Lazy-Hazy-Crazy Days of Summer [2:59]
17. Smile [2:57]
18. Darling, Je Vous Aime Beaucoup [2:53]
19. Answer Me, My Love [3:01]
20. A Blossom Fell [2:47]
21. If I May [3:07]
22. Unforgettable (Duet with Natalie Cole) [3:32]

Exact Audio Copy V1.3 from 2. September 2016

EAC extraction logfile from 23. November 2016, 22:28

NAT 'KING' COLE / The Greatest Hits (USA, DCC, GZS-1127)

Used drive : ASUS DRW-24B3ST Adapter: 1 ID: 1

Read mode : Secure
Utilize accurate stream : Yes
Defeat audio cache : Yes
Make use of C2 pointers : No

Read offset correction : 6
Overread into Lead-In and Lead-Out : No
Fill up missing offset samples with silence : Yes
Delete leading and trailing silent blocks : No
Null samples used in CRC calculations : Yes
Used interface : Native Win32 interface for Win NT & 2000

Used output format : User Defined Encoder
Selected bitrate : 1024 kBit/s
Quality : High
Add ID3 tag : No
Command line compressor : C:\Program Files\EAC(v.1.3)\WV\wavpack.exe
Additional command line options : -h -hh -m %source%


TOC of the extracted CD

Track | Start | Length | Start sector | End sector
––––––––––––––––––––––––––––-
1 | 0:00.00 | 3:28.34 | 0 | 15633
2 | 3:28.34 | 3:00.68 | 15634 | 29201
3 | 6:29.27 | 2:36.55 | 29202 | 40956
4 | 9:06.07 | 3:29.48 | 40957 | 56679
5 | 12:35.55 | 2:44.42 | 56680 | 69021
6 | 15:20.22 | 2:43.65 | 69022 | 81311
7 | 18:04.12 | 2:32.08 | 81312 | 92719
8 | 20:36.20 | 2:31.17 | 92720 | 104061
9 | 23:07.37 | 3:08.00 | 104062 | 118161
10 | 26:15.37 | 3:09.55 | 118162 | 132391
11 | 29:25.17 | 2:57.73 | 132392 | 145739
12 | 32:23.15 | 2:54.02 | 145740 | 158791
13 | 35:17.17 | 2:50.00 | 158792 | 171541
14 | 38:07.17 | 3:28.15 | 171542 | 187156
15 | 41:35.32 | 3:03.58 | 187157 | 200939
16 | 44:39.15 | 2:59.02 | 200940 | 214366
17 | 47:38.17 | 2:57.33 | 214367 | 227674
18 | 50:35.50 | 2:53.30 | 227675 | 240679
19 | 53:29.05 | 3:00.70 | 240680 | 254249
20 | 56:30.00 | 2:47.22 | 254250 | 266796
21 | 59:17.22 | 3:07.25 | 266797 | 280846
22 | 62:24.47 | 3:32.30 | 280847 | 296776


Range status and errors

Selected range

Filename F:\NAT 'KING' COLE - The Greatest Hits (1994) (US 1998 DCC Compact Classics, Inc. • GZS-1127)\NAT 'KING' COLE - The Greatest Hits (USA, DCC, GZS-1127).wav

Peak level 96.7 %
Extraction speed 8.1 X
Range quality 100.0 %
Test CRC 003B773A
Copy CRC 003B773A
Copy OK

No errors occurred


AccurateRip summary

Track 1 accurately ripped (confidence 15) [3B529E1D] (AR v2)
Track 2 accurately ripped (confidence 15) [316EB065] (AR v2)
Track 3 accurately ripped (confidence 15) [D1992DEB] (AR v2)
Track 4 accurately ripped (confidence 15) [D9A13B92] (AR v2)
Track 5 accurately ripped (confidence 16) [7AC95A40] (AR v2)
Track 6 accurately ripped (confidence 15) [00FDE2B5] (AR v2)
Track 7 accurately ripped (confidence 15) [A4A056DA] (AR v2)
Track 8 accurately ripped (confidence 16) [BE4F59B6] (AR v2)
Track 9 accurately ripped (confidence 15) [3C61BB04] (AR v2)
Track 10 accurately ripped (confidence 15) [0113A4C4] (AR v2)
Track 11 accurately ripped (confidence 15) [CE735717] (AR v2)
Track 12 accurately ripped (confidence 16) [DDC213BF] (AR v2)
Track 13 accurately ripped (confidence 15) [F8B1C38D] (AR v2)
Track 14 accurately ripped (confidence 15) [78448A21] (AR v2)
Track 15 accurately ripped (confidence 16) [21E124B5] (AR v2)
Track 16 accurately ripped (confidence 16) [DA5CF463] (AR v2)
Track 17 accurately ripped (confidence 16) [F9E52C9C] (AR v2)
Track 18 accurately ripped (confidence 15) [9EE60F3E] (AR v2)
Track 19 accurately ripped (confidence 15) [64D7B9A7] (AR v2)
Track 20 accurately ripped (confidence 15) [407B3177] (AR v2)
Track 21 accurately ripped (confidence 14) [2A6E9BD8] (AR v2)
Track 22 accurately ripped (confidence 13) [D2BF84A0] (AR v2)

All tracks accurately ripped

End of status report

==== Log checksum 57A21F27D18EC813D56F59691AD1C267382DD82E5C4A452459EC0AF798F15559 ====

foobar2000 1.2.9 / Dynamic Range Meter 1.1.1
log date: 2016-11-29 18:09:29

––––––––––––––––––––––––––––––––––––––––
Analyzed: NAT 'KING' COLE / The Greatest Hits (USA, DCC, GZS-1127)
––––––––––––––––––––––––––––––––––––––––

DR Peak RMS Duration Track
––––––––––––––––––––––––––––––––––––––––
DR13 -2.21 dB -18.77 dB 3:28 01-Unforgettable
DR14 -0.97 dB -18.94 dB 3:01 02-(Get Your Kicks On) Route 66
DR11 -0.29 dB -15.12 dB 2:37 03-Orange Colored Sky
DR11 -4.29 dB -18.43 dB 3:30 04-Mona Lisa
DR15 -0.29 dB -19.39 dB 2:45 05-Walkin' My Baby Back Home
DR13 -0.43 dB -15.89 dB 2:44 06-Straighten Up and Fly Right
DR15 -0.29 dB -19.02 dB 2:32 07-Send for Me
DR12 -3.20 dB -18.11 dB 2:31 08-Looking Back
DR12 -2.35 dB -17.88 dB 3:08 09-You Call It Madness (But I Call It Love)
DR14 -3.30 dB -20.10 dB 3:10 10-(I Love You) For Sentimental Reasons
DR13 -2.68 dB -19.97 dB 2:58 11-Nature Boy
DR13 -1.11 dB -16.43 dB 2:54 12-Ramblin' Rose
DR11 -2.39 dB -17.90 dB 2:50 13-Pretend
DR13 -2.48 dB -18.22 dB 3:28 14-Too Young
DR12 -2.05 dB -17.52 dB 3:04 15-Somewhere Along the Way
DR14 -0.79 dB -18.59 dB 2:59 16-Those Lazy-Hazy-Crazy Days of Summer
DR11 -2.71 dB -17.75 dB 2:57 17-Smile
DR11 -1.18 dB -17.15 dB 2:53 18-Darling, Je Vous Aime Beaucoup
DR10 -1.37 dB -16.17 dB 3:01 19-Answer Me, My Love
DR11 -1.19 dB -16.50 dB 2:47 20-A Blossom Fell
DR12 -2.92 dB -17.50 dB 3:07 21-If I May
DR12 -1.91 dB -17.19 dB 3:32 22-Unforgettable (Duet with Natalie Cole)
––––––––––––––––––––––––––––––––––––––––

Number of tracks: 22
Official DR value: DR12

Samplerate: 44100 Hz
Channels: 2
Bits per sample: 16
Bitrate: 718 kbps
Codec: FLAC

[CUETools log; Date: 29.11.2016 18:09:17; Version: 2.1.4]
[CTDB TOCID: 8x2gDb9.OjM4xYjHJnMS9rpF4z4-] found.
Track | CTDB Status
1 | (17/17) Accurately ripped
2 | (17/17) Accurately ripped
3 | (17/17) Accurately ripped
4 | (17/17) Accurately ripped
5 | (17/17) Accurately ripped
6 | (17/17) Accurately ripped
7 | (16/17) Accurately ripped
8 | (16/17) Accurately ripped
9 | (16/17) Accurately ripped
10 | (16/17) Accurately ripped
11 | (16/17) Accurately ripped
12 | (16/17) Accurately ripped
13 | (16/17) Accurately ripped
14 | (16/17) Accurately ripped
15 | (16/17) Accurately ripped
16 | (16/17) Accurately ripped
17 | (16/17) Accurately ripped
18 | (16/17) Accurately ripped
19 | (16/17) Accurately ripped
20 | (16/17) Accurately ripped
21 | (10/17) Accurately ripped, or (6/17) differs in 3 samples @02:38:36
22 | ( 9/17) Accurately ripped, or (6/17) differs in 28 samples @00:24:21,00:48:49,00:52:34,01:12:20,01:30:17,01:32:31,01:36:57,01:38:10,01:53:30,02:02:11,02:17:34,02:23:36
[AccurateRip ID: 0033a96b-0339a8ab-5a0f7516] found.
Track [ CRC | V2 ] Status
01 [9f9145ec|3b529e1d] (08+15/32) Accurately ripped
02 [b3473367|316eb065] (08+15/31) Accurately ripped
03 [8772a26a|d1992deb] (08+15/31) Accurately ripped
04 [3254fe3a|d9a13b92] (08+15/31) Accurately ripped
05 [a768820f|7ac95a40] (08+16/32) Accurately ripped
06 [cbedcc77|00fde2b5] (08+15/31) Accurately ripped
07 [c39a2c55|a4a056da] (08+15/31) Accurately ripped
08 [d7e97872|be4f59b6] (08+16/32) Accurately ripped
09 [57852f2f|3c61bb04] (08+15/31) Accurately ripped
10 [f77a7f82|0113a4c4] (08+15/31) Accurately ripped
11 [80263d87|ce735717] (08+15/31) Accurately ripped
12 [35118ce6|ddc213bf] (08+16/32) Accurately ripped
13 [ed3b3264|f8b1c38d] (08+15/31) Accurately ripped
14 [2406dfef|78448a21] (08+15/31) Accurately ripped
15 [45d8c7fa|21e124b5] (08+16/32) Accurately ripped
16 [39cd9592|da5cf463] (09+16/33) Accurately ripped
17 [f45eab32|f9e52c9c] (08+16/33) Accurately ripped
18 [050667ee|9ee60f3e] (08+15/31) Accurately ripped
19 [0d592be9|64d7b9a7] (08+15/31) Accurately ripped
20 [918ec34c|407b3177] (08+15/31) Accurately ripped
21 [47e5dadf|2a6e9bd8] (07+14/29) Accurately ripped
22 [7bd87a05|d2bf84a0] (07+13/29) Accurately ripped
Offsetted by -667:
01 [34664d3f] (05/32) Accurately ripped
02 [cbc6af5b] (04/31) Accurately ripped
03 [3c73ff80] (04/31) Accurately ripped
04 [b1ace69c] (04/31) Accurately ripped
05 [4780f9b3] (04/32) Accurately ripped
06 [aead7600] (04/31) Accurately ripped
07 [a35df5ed] (04/31) Accurately ripped
08 [3bf023a8] (04/32) Accurately ripped
09 [0ab1982a] (04/31) Accurately ripped
10 [80a16d1e] (04/31) Accurately ripped
11 [77d32172] (04/31) Accurately ripped
12 [a98ebae9] (04/32) Accurately ripped
13 [e7f8efe6] (04/31) Accurately ripped
14 [00d2e63b] (04/31) Accurately ripped
15 [cba7b338] (04/32) Accurately ripped
16 [646f7e68] (04/33) Accurately ripped
17 [ad44fb8d] (05/33) Accurately ripped
18 [af664189] (04/31) Accurately ripped
19 [1caef724] (04/31) Accurately ripped
20 [2ff52699] (04/31) Accurately ripped
21 [eca75d45] (02/29) Accurately ripped
22 [1d98aad2] (02/29) Accurately ripped
Offsetted by -697:
01 [d1dfc9bf] (00/32) No match (V2 was not tested)
02 [71b0748d] (00/31) No match (V2 was not tested)
03 [ac8794a9] (00/31) No match (V2 was not tested)
04 [95d9fac9] (00/31) No match (V2 was not tested)
05 [ed133e2d] (00/32) No match (V2 was not tested)
06 [ea6c5651] (00/31) No match (V2 was not tested)
07 [b4692960] (00/31) No match (V2 was not tested)
08 [cd1652b0] (00/32) No match (V2 was not tested)
09 [1bdb60ff] (00/31) No match (V2 was not tested)
10 [8d4e4bf6] (00/31) No match (V2 was not tested)
11 [4fc18979] (00/31) No match (V2 was not tested)
12 [b0fb7194] (00/32) No match (V2 was not tested)
13 [18552508] (00/31) No match (V2 was not tested)
14 [a713452d] (00/31) No match (V2 was not tested)
15 [8fee64e7] (00/32) No match (V2 was not tested)
16 [eb8718ec] (00/33) No match (V2 was not tested)
17 [583aa601] (00/33) No match (V2 was not tested)
18 [9b72f4b0] (00/31) No match (V2 was not tested)
19 [8d3f1a94] (00/31) No match (V2 was not tested)
20 [e21e90a9] (00/31) No match (V2 was not tested)
21 [12997503] (00/29) No match (V2 was not tested)
22 [4562e9ed] (00/29) No match (V2 was not tested)
Offsetted by -637:
01 [538ef4d4] (02/32) Accurately ripped
02 [4d536021] (02/31) Accurately ripped
03 [215630e8] (02/31) Accurately ripped
04 [2373e7b3] (02/31) Accurately ripped
05 [eaaf6bba] (02/32) Accurately ripped
06 [f5bd88af] (02/31) Accurately ripped
07 [c1a4b142] (02/31) Accurately ripped
08 [0c3a1456] (02/32) Accurately ripped
09 [934bb923] (02/31) Accurately ripped
10 [74b59eff] (02/31) Accurately ripped
11 [ff078a5c] (02/31) Accurately ripped
12 [2bb7cb8b] (02/32) Accurately ripped
13 [40aab539] (02/31) Accurately ripped
14 [f20f6d3e] (02/31) Accurately ripped
15 [080407c5] (02/32) Accurately ripped
16 [8dbafcc7] (02/33) Accurately ripped
17 [9d625104] (02/33) Accurately ripped
18 [d053e23e] (02/31) Accurately ripped
19 [28e1cb8e] (02/31) Accurately ripped
20 [174508ae] (02/31) Accurately ripped
21 [eb8bdfd7] (00/29) No match (V2 was not tested)
22 [f75469ff] (00/29) No match (V2 was not tested)

Track Peak [ CRC32 ] [W/O NULL] [ LOG ]
– 96,7 [003B773A] [0D9ACB92] CRC32
01 77,5 [6AB7F899] [216AE052]
02 89,4 [8EE8ABF2] [4B30E2A4]
03 96,7 [1C558167] [FD756108]
04 61,0 [7402249C] [C2317B29]
05 96,7 [70419058] [AE4A040D]
06 95,1 [63B57C10] [9B2AA617]
07 96,7 [CF4A4AB9] [8A1283E9]
08 69,1 [195D33A1] [EA31E5B5]
09 76,3 [5F29BEE3] [46B45152]
10 68,3 [85E66ED7] [93E298E2]
11 73,4 [60659698] [124E194B]
12 87,9 [AC67781A] [454E41B7]
13 75,9 [70D0F4F3] [6BD5A7A2]
14 75,1 [E2D4EEAD] [13E90DE2]
15 79,0 [7E4ABA20] [FEE1C121]
16 91,3 [091305A3] [1531BA44]
17 73,1 [2CD817F2] [F3608754]
18 87,3 [070E036F] [5E145348]
19 85,3 [55B55706] [60D066A6]
20 87,2 [4291C798] [EC273121]
21 71,4 [490EADD0] [86219784]
22 80,2 [9B1E5F60] [552BF90C]

Nat King Cole - The Greatest Hits (1994) [DCC, GZS-1127] Re-up

All thanks go to the original releaser

Download Nat King Cole - The Greatest Hits (1994):