Subcategories

Natalie Dessay, Evelino Pidò, Concerto Köln - Italian Opera Arias (2008)

Posted By: ArlegZ
Natalie Dessay, Evelino Pidò, Concerto Köln - Italian Opera Arias (2008)

Natalie Dessay, Evelino Pidò, Concerto Köln - Italian Opera Arias (2008)
EAC | FLAC | Image (Cue & Log) ~ 472 Mb | Total time: 73:25 | Scans included
Classical | Label: Virgin Classics | 5 14365 2 | Recorded: 2007

This selection of scenes and arias, all very familiar items, is distinguished by the imaginative accompaniments under Evelino Pidò. …here we have one of the great opera personalities of our time - it's a lovely voice, used with a formidable technique.
–Gramophone

Performer:
Natalie Dessay, soprano
Karine Deshayes, mezzo-soprano
Roberto Alagna, tenor
Franck Ferrari, baritone
Matthew Rose, bass
Sascha Reckert, glass harmonica
Europäischer Kammerchor
Concerto Köln
Evelino Pidò, conductor

Track List:
Giuseppe Verdi (1813-1901)
La Traviata, Atto I
01. È strano! È strano!…Ah, fors' è lui (Violetta)
02. Follie! Follie!…Sempre libera (Violetta, Alfredo)
Vincenzo Bellini (1801-1835)
I Puritani, Atto II
03. O rendetemi la speme (Elvira, Giorgio, Riccardo)
04. Qui la voce sua soave (Elvira, Giorgio, Riccardo)
05. Vien, diletto, è in ciel la luna … (Elvira, Riccardo, Giorgio)
Gaetano Donizetti (1797-1848)
Maria Stuarda, Atto II
06. Allenta il piè, Regina (Anna, Maria)
07. Oh nube che lieve (Maria, Cacciatori, Anna)
08. Nella pace del mesto riposo (Maria, Anna)
Giuseppe Verdi
Rigoletto, Atto I
09. Gualtier Maldé…Caro nome (Gilda, Borsa, Ceprano, Coro, Marullo)
Vincenzo Bellini
I Capuleti e i Montecchi, Atto I
10. I Capuleti e i Montecchi, Act 1: "Eccomi in lieta vesta" (Giulietta)
11. I Capuleti e i Montecchi, Act 1: "Oh! quante volte" (Giulietta)
Gaetano Donizetti
Lucia di Lammermoor
12. Atto I: Il dolce suono (Lucia)
13. Atto III: Ardon gli incensi (Lucia, Normanno, Raimondo, Coro)
14. Atto III: S'avanza Enrico (Raimondo, Enrico, Coro, Lucia)
15. Atto III: Spargi d'amaro pianto (Lucia, Enrico, Raimondo, Coro)


Exact Audio Copy V1.3 from 2. September 2016

Отчёт EAC об извлечении, выполненном 4. января 2020, 16:16

Natalie Dessay, Concerto Köln, Evelino Pidò / Airs d'opéras italiens

Дисковод: ASUS BW-16D1H-U Adapter: 1 ID: 0

Режим чтения : Достоверность
Использование точного потока : Да
Отключение кэша аудио : Да
Использование указателей C2 : Нет

Коррекция смещения при чтении : 6
Способность читать области Lead-in и Lead-out : Нет
Заполнение пропущенных сэмплов тишиной : Да
Удаление блоков с тишиной в начале и конце : Нет
При вычислениях CRC использовались нулевые сэмплы : Да
Интерфейс : Встроенный Win32-интерфейс для Win NT/2000

Выходной формат : Пользовательский кодировщик
Выбранный битрейт : 128 kBit/s
Качество : Высокий
Добавление ID3-тега : Нет
Утилита сжатия : C:\Program Files (x86)\Exact Audio Copy 1.3\Flac\flac.exe
Дополнительные параметры : -V -8 -T "Date=%year%" -T "Genre=%genre%" %source%


TOC извлечённого CD

Трек | Старт | Длительность | Начальный сектор | Конечный сектор
––––––––––––––––––––––––––––––––––-
1 | 0:00.00 | 6:05.14 | 0 | 27388
2 | 6:05.14 | 4:45.62 | 27389 | 48825
3 | 10:51.01 | 2:08.32 | 48826 | 58457
4 | 12:59.33 | 9:03.04 | 58458 | 99186
5 | 22:02.37 | 5:26.56 | 99187 | 123692
6 | 27:29.18 | 3:51.18 | 123693 | 141035
7 | 31:20.36 | 3:35.60 | 141036 | 157220
8 | 34:56.21 | 3:02.23 | 157221 | 170893
9 | 37:58.44 | 6:44.67 | 170894 | 201260
10 | 44:43.36 | 5:48.30 | 201261 | 227390
11 | 50:31.66 | 4:01.41 | 227391 | 245506
12 | 54:33.32 | 6:41.26 | 245507 | 275607
13 | 61:14.58 | 4:52.24 | 275608 | 297531
14 | 66:07.07 | 2:57.34 | 297532 | 310840
15 | 69:04.41 | 4:19.57 | 310841 | 330322
16 | 75:56.23 | 3:45.14 | 341723 | 358611


Характеристики диапазона извлечения и сообщения об ошибках

Выбранный диапазон

Имя файла D:\EAC\New2020\Natalie Dessay - Airs d'operas italiens 2007\Natalie Dessay, Concerto Köln, Evelino Pidò - Airs d'opéras italiens.wav

Пиковый уровень 92.8 %
Скорость извлечения 8.6 X
Качество диапазона 99.9 %
CRC теста 8B4114E2
CRC копии 8B4114E2
Копирование… OK

Ошибок не произошло


AccurateRip: сводка

Трек 1 : извлечено точно (доверие 2) [2748E1AE] (AR v2)
Трек 2 : извлечено точно (доверие 2) [C26D73B9] (AR v2)
Трек 3 : извлечено точно (доверие 2) [3E2EFCFB] (AR v2)
Трек 4 : извлечено точно (доверие 2) [C97017AD] (AR v2)
Трек 5 : извлечено точно (доверие 2) [0A65D991] (AR v2)
Трек 6 : извлечено точно (доверие 2) [3970FDDE] (AR v2)
Трек 7 : извлечено точно (доверие 2) [F90E762A] (AR v2)
Трек 8 : извлечено точно (доверие 2) [47EC339F] (AR v2)
Трек 9 : извлечено точно (доверие 2) [AE1292EA] (AR v2)
Трек 10 : извлечено точно (доверие 2) [4753B960] (AR v2)
Трек 11 : извлечено точно (доверие 2) [4E517973] (AR v2)
Трек 12 : извлечено точно (доверие 2) [6983D0CC] (AR v2)
Трек 13 : извлечено точно (доверие 2) [06B37DDB] (AR v2)
Трек 14 : извлечено точно (доверие 2) [7A22647D] (AR v2)
Трек 15 : извлечено точно (доверие 2) [5495B536] (AR v2)

Все треки извлечены точно

Конец отчёта

–– CUETools DB Plugin V2.1.6

[CTDB TOCID: jgjt.V3sZ40EzLK0xS0efghWU8Q-] found
Submit result: jgjt.V3sZ40EzLK0xS0efghWU8Q- has been confirmed
Track | CTDB Status
1 | (90/91) Accurately ripped
2 | (91/91) Accurately ripped
3 | (91/91) Accurately ripped
4 | (91/91) Accurately ripped
5 | (91/91) Accurately ripped
6 | (91/91) Accurately ripped
7 | (91/91) Accurately ripped
8 | (91/91) Accurately ripped
9 | (91/91) Accurately ripped
10 | (91/91) Accurately ripped
11 | (91/91) Accurately ripped
12 | (91/91) Accurately ripped
13 | (91/91) Accurately ripped
14 | (91/91) Accurately ripped
15 | (91/91) Accurately ripped


==== Контрольная сумма отчёта EDBA2A354ECDECE7BF50D149685D9F3B995FB7325D9A61A9B6F980116113CA18 ====

Natalie Dessay, Evelino Pidò, Concerto Köln - Italian Opera Arias (2008)

Thanks to the original releaser