Subcategories
Tags
Language
Tags

Nate Wooley - Mutual Aid Music (2021) {Pleasure of the Text Recordings}

Posted By: tiburon
Nate Wooley - Mutual Aid Music (2021) {Pleasure of the Text Recordings}

Nate Wooley - Mutual Aid Music (2021) {Pleasure of the Text Recordings}
WEB | FLAC tracks | Digital Booklet | 362MB + 5% Recovery
MP3 CBR 320 Kbps | 187MB + 5% Recovery
Genre: Jazz, Avant-Garde Jazz

On Friday, April 16, 2021, trumpeter and composer Nate Wooley will release Mutual Aid Music, a double-CD of eight ensemble concertos, on Pleasure of the Text Records. Wooley's concertos are performed by an all-star group composed of saxophonist Ingrid Laubrock, violinist Joshua Modney, cellist Mariel Roberts, pianists Sylvie Courvoisier and Cory Smythe, percussionists Matt Moran and Russell Greenberg, and Wooley himself on trumpet.

Mutual aid points to the concept of community action and the human drive to provide succor to our fellow humans. Mutual aid is the primary ethic of an anarchistic utopia in which each knows what they have, is honest about what they need, and is prepared to give and receive accordingly. Every human want is met by a commensurate surplus and all are lifted equally above suffering. Wooley's Mutual Aid Music asks the musicians to take stock of their gifts and to ask themselves, in each moment, how their use of that gift will affect the community (ensemble) of which they are currently a member.
Track List
1 - Mutual Aid Music I
2 - Mutual Aid Music II
3 - Mutual Aid Music III
4 - Mutual Aid Music IV
5 - Mutual Aid Music I-I
6 - Mutual Aid Music II-I
7 - Mutual Aid Music III-I
8 - Mutual Aid Music IV-I

musicians
Nate Wooley: trumpet
Ingrid Laubrock: sax
Joshua Modney: violin
Mariel Roberts: cello
Sylvie Courvoisier: piano
Cory Smythe: piano
Matt Moran: vibraphone
Russell Greenberg: vibraphone and percussion


AUDIOCHECKER v2.0 beta (build 457) - by Dester - opdester@freemail.hu
~~~~~~~~~~~~~~~~~~~~~~~~~~~~~~~~~~
-=== DO NOT EDIT THIS FILE! ===-

Path: …\Nate Wooley - Mutual Aid Music (2021) [FLAC]

1 -=- 01 - Mutual Aid Music I.flac -=- CDDA (100%)
2 -=- 02 - Mutual Aid Music II.flac -=- CDDA (99%)
3 -=- 03 - Mutual Aid Music III.flac -=- CDDA (100%)
4 -=- 04 - Mutual Aid Music IV.flac -=- CDDA (99%)
5 -=- 05 - Mutual Aid Music I-I.flac -=- CDDA (100%)
6 -=- 06 - Mutual Aid Music II-I.flac -=- CDDA (100%)
7 -=- 07 - Mutual Aid Music III-I.flac -=- CDDA (100%)
8 -=- 08 - Mutual Aid Music IV-I.flac -=- CDDA (100%)

Summary 99,75% CDDA

190693668


foobar2000 1.3.13 / Dynamic Range Meter 1.1.1
log date: 2021-04-18 17:15:10

––––––––––––––––––––––––––––––––––––––––
Analyzed: Nate Wooley / Mutual Aid Music
––––––––––––––––––––––––––––––––––––––––

DR Peak RMS Duration Track
––––––––––––––––––––––––––––––––––––––––
DR9 -1.02 dB -15.09 dB 10:21 01-Mutual Aid Music I
DR9 -0.93 dB -14.14 dB 9:12 02-Mutual Aid Music II
DR13 -1.54 dB -20.28 dB 9:56 03-Mutual Aid Music III
DR14 -1.02 dB -19.67 dB 12:32 04-Mutual Aid Music IV
DR12 -1.02 dB -17.61 dB 8:27 05-Mutual Aid Music I-I
DR11 -0.85 dB -17.29 dB 9:26 06-Mutual Aid Music II-I
DR12 -1.23 dB -18.44 dB 7:04 07-Mutual Aid Music III-I
DR12 -0.87 dB -18.22 dB 14:41 08-Mutual Aid Music IV-I
––––––––––––––––––––––––––––––––––––––––

Number of tracks: 8
Official DR value: DR12

Samplerate: 44100 Hz
Channels: 2
Bits per sample: 16
Bitrate: 602 kbps
Codec: FLAC
================================================================================